<?xml version="1.0" standalone="no"?>
<!DOCTYPE svg PUBLIC "-//W3C//DTD SVG 1.1//EN" "http://www.w3.org/Graphics/SVG/1.1/DTD/svg11.dtd" >
<svg xmlns="http://www.w3.org/2000/svg" xmlns:xlink="http://www.w3.org/1999/xlink" version="1.1">
<metadata>
Created by FontForge 20161003 at Thu Nov 24 06:05:10 2016
 By www-data
Copyright(c) 2014 by Julieta Ulanovsky. All rights reserved.
</metadata>
<defs>
<font id="MontserratLight" horiz-adv-x="716" >
  <font-face 
    font-family="MontserratLight"
    font-weight="300"
    font-stretch="normal"
    units-per-em="2048"
    panose-1="0 0 4 0 0 0 0 0 0 0"
    ascent="1638"
    descent="-410"
    x-height="1079"
    cap-height="1434"
    bbox="-569 -453 2748 1976"
    underline-thickness="0"
    underline-position="0"
    unicode-range="U+0020-FB02"
  />
<missing-glyph horiz-adv-x="1228" 
 />
    <glyph glyph-name="fi" unicode="fi" horiz-adv-x="1210" 
d="M275.5 1368q48.5 82 128 124t169.5 42q113 -4 195 -55l-4 -150q-100 53 -193 53q-82 0 -134 -50t-52 -140v-139h309v-131h-309v-922h-158v922h-139v131h139v118q0 115 48.5 197zM861 1309.5q-30 31.5 -30 79.5q0 47 30 78.5t75 31.5t74.5 -31.5t29.5 -78.5t-29.5 -79
t-74.5 -32t-75 31.5zM1016 1079v-1079h-158v1079h158z" />
    <glyph glyph-name="fl" unicode="fl" horiz-adv-x="1249" 
d="M271 1370q44 80 123 125t175 45q53 0 106.5 -14.5t94.5 -36.5l-4 -150q-84 57 -168 58q-90 0 -151.5 -64.5t-61.5 -163.5v-116h309v-129h-309v-924h-158v924h-139v129h139v139q0 98 44 178zM1044 0h-159v1520h159v-1520z" />
    <glyph glyph-name=".notdef" horiz-adv-x="1228" 
 />
    <glyph glyph-name=".null" horiz-adv-x="0" 
 />
    <glyph glyph-name="nonmarkingreturn" horiz-adv-x="682" 
 />
    <glyph glyph-name="space" unicode=" " horiz-adv-x="561" 
 />
    <glyph glyph-name="exclam" unicode="!" horiz-adv-x="415" 
d="M279 432h-107l-22 631v346h153v-346zM297 166q29 -31 29 -76t-29 -75.5t-72 -30.5q-41 0 -69.5 30.5t-28.5 75.5t28.5 76t69.5 31q43 0 72 -31z" />
    <glyph glyph-name="quotedbl" unicode="&#x22;" horiz-adv-x="641" 
d="M123 969v465h127v-465h-127zM391 969v465h127v-465h-127z" />
    <glyph glyph-name="numbersign" unicode="#" horiz-adv-x="1470" 
d="M1036 508h293l-10 -129h-297l-47 -379h-123l47 379h-412l-47 -379h-123l48 379h-293l10 129h297l51 405h-293l10 129h299l48 392h122l-47 -392h412l49 392h121l-47 -392h291l-9 -129h-299zM551 913l-49 -405h411l52 405h-414z" />
    <glyph glyph-name="dollar" unicode="$" horiz-adv-x="1249" 
d="M920.5 720q89.5 -42 151 -122t61.5 -207q0 -164 -120 -270.5t-321 -122.5v-272h-125v270q-141 8 -273 66.5t-228 150.5l73 147q88 -86 201 -138t227 -62v508q-131 39 -218 81t-144.5 119.5t-57.5 200.5q0 154 114 252t306 115v250h125v-248q111 -6 217.5 -41t188.5 -90
l-70 -154q-78 51 -165 81t-171 38v-467q139 -43 228.5 -85zM389.5 938q61.5 -53 177.5 -94v426q-113 -10 -176 -59.5t-63 -127.5q0 -92 61.5 -145zM885.5 532.5q-66.5 55.5 -193.5 96.5v-467q123 14 191.5 71.5t68.5 145.5q0 98 -66.5 153.5z" />
    <glyph glyph-name="percent" unicode="%" horiz-adv-x="1929" 
d="M722 1323q97 -113 97 -311q0 -201 -97 -312.5t-269 -111.5t-268.5 111.5t-96.5 312.5t96.5 312.5t268.5 111.5t269 -113zM266.5 1249q-65.5 -84 -65.5 -237q0 -154 65.5 -237t186.5 -83t186.5 83t65.5 237t-66 237.5t-186 83.5q-121 0 -186.5 -84zM1409 1434h158
l-1072 -1434h-159zM1744 732.5q97 -111.5 97 -310.5q0 -201 -97 -312.5t-269 -111.5t-268.5 111.5t-96.5 312.5q0 199 96.5 310.5t268.5 111.5t269 -111.5zM1288.5 658q-65.5 -83 -65.5 -236q0 -156 65.5 -239t186.5 -83t186.5 83t65.5 239q0 154 -66 236.5t-186 82.5
q-121 0 -186.5 -83z" />
    <glyph glyph-name="ampersand" unicode="&#x26;" horiz-adv-x="1329" 
d="M989 211q-207 -219 -444 -219q-117 0 -215.5 51t-154.5 141t-56 201q0 141 86 233.5t239 174.5q-76 96 -111.5 178t-35.5 159q0 135 97.5 222.5t252.5 87.5q147 0 239.5 -80t92.5 -209q0 -90 -48 -159.5t-121 -120t-185 -109.5q109 -127 348 -363q82 115 147 279l109 -84
q-74 -168 -162 -287l248 -244l-86 -90zM458.5 1002.5q30.5 -68.5 94.5 -154.5q147 78 221 142.5t74 160.5q0 80 -54.5 129t-146.5 49q-98 0 -158.5 -56t-60.5 -140q0 -62 30.5 -130.5zM897 303q-274 274 -383 402q-125 -70 -192.5 -139.5t-67.5 -168.5q0 -121 85 -197.5
t212 -76.5q182 0 346 180z" />
    <glyph glyph-name="quotesingle" unicode="'" horiz-adv-x="372" 
d="M123 969v465h127v-465h-127z" />
    <glyph glyph-name="parenleft" unicode="(" horiz-adv-x="620" 
d="M392.5 1115q-62.5 -228 -62.5 -482t62.5 -483.5t174.5 -403.5h-145q-119 172 -181.5 401.5t-62.5 485.5t62.5 484.5t181.5 402.5h145q-112 -177 -174.5 -405z" />
    <glyph glyph-name="parenright" unicode=")" horiz-adv-x="651" 
d="M355.5 1115q62.5 -228 62.5 -482t-62.5 -483.5t-174.5 -403.5h145q119 172 181.5 401.5t62.5 485.5t-62.5 484.5t-181.5 402.5h-145q112 -177 174.5 -405z" />
    <glyph glyph-name="asterisk" unicode="*" horiz-adv-x="671" 
d="M381 870h-90l2 222l-193 -113l-45 86l193 111l-193 106l45 88l193 -113l-2 220h90v-220l190 111l45 -86l-194 -106l194 -111l-45 -86l-192 113z" />
    <glyph glyph-name="plus" unicode="+" horiz-adv-x="1005" 
d="M559 602v-371h-110v371h-373v119h373v371h110v-371h371v-119h-371z" />
    <glyph glyph-name="comma" unicode="," horiz-adv-x="403" 
d="M274.5 164q28.5 -29 28.5 -76q0 -41 -31 -88l-96 -147h-90l68 149q-45 27 -45 88q0 45 27.5 74t68.5 29t69.5 -29z" />
    <glyph glyph-name="hyphen" unicode="-" horiz-adv-x="743" 
d="M131 561v119h481v-119h-481z" />
    <glyph glyph-name="period" unicode="." horiz-adv-x="407" 
d="M274.5 166q28.5 -31 28.5 -76t-28.5 -75.5t-69.5 -30.5q-43 0 -72 30.5t-29 75.5t29 76t72 31q41 0 69.5 -31z" />
    <glyph glyph-name="slash" unicode="/" horiz-adv-x="649" 
d="M-23 -250l639 1929h142l-641 -1929h-140z" />
    <glyph glyph-name="zero" unicode="0" horiz-adv-x="1400" 
d="M1138.5 1251.5q153.5 -186.5 153.5 -534.5t-153.5 -534.5t-438.5 -186.5t-438 186.5t-153 534.5t153.5 534.5t437.5 186.5q285 0 438.5 -186.5zM381.5 1153q-107.5 -145 -107.5 -436q0 -289 109 -435.5t317 -146.5q209 0 317.5 146.5t108.5 435.5q0 291 -107.5 436
t-318.5 145t-318.5 -145z" />
    <glyph glyph-name="one" unicode="1" horiz-adv-x="759" 
d="M326 0v1278h-291v156h452v-1434h-161z" />
    <glyph glyph-name="two" unicode="2" horiz-adv-x="1189" 
d="M882.5 1344.5q118.5 -95.5 118.5 -257.5q0 -98 -67.5 -217.5t-185.5 -246.5l-441 -467h776v-156h-985v135l537 584q90 90 143 183t53 163q0 104 -75.5 163.5t-210.5 59.5q-98 0 -201.5 -47t-189.5 -131l-72 131q104 94 230 146.5t253 52.5q199 0 317.5 -95.5z" />
    <glyph glyph-name="three" unicode="3" horiz-adv-x="1079" 
d="M853 710.5q118 -100.5 118 -270.5q0 -131 -61.5 -233.5t-175 -158.5t-265.5 -56q-121 0 -242 40t-213 105l72 137q78 -63 175 -99t196 -36q166 0 260 81t94 214t-93 203t-263 70h-176v104l419 465h-620v156h825v-111l-444 -494l80 -6q196 -10 314 -110.5z" />
    <glyph glyph-name="four" unicode="4" horiz-adv-x="1181" 
d="M752 535v378h153v-378h217v-158h-217v-377h-153v377h-689v135l515 922h161l-499 -899h512z" />
    <glyph glyph-name="five" unicode="5" horiz-adv-x="1157" 
d="M322 1276v-404q123 20 241 21q147 0 260 -54.5t173.5 -150.5t60.5 -219q0 -141 -62.5 -248.5t-177.5 -166t-266 -58.5q-119 0 -250 42t-233 114l67 139q88 -68 194.5 -106t205.5 -38q162 0 255 84t93 228q0 127 -93.5 201.5t-250.5 74.5q-74 0 -184.5 -10t-184.5 -25v734
h831v-158h-679z" />
    <glyph glyph-name="six" unicode="6" horiz-adv-x="1236" 
d="M906.5 1412q109.5 -28 197.5 -75l-66 -131q-70 41 -157.5 64.5t-171.5 23.5q-211 0 -326 -151.5t-115 -413.5q0 -49 2 -74q47 127 159 195t269 68q211 0 333 -122t122 -329q0 -219 -132 -347t-353 -128q-262 0 -410.5 182t-148.5 512q0 225 71.5 396t204.5 264.5
t313 93.5q99 0 208.5 -28zM477 734q-82 -44 -126 -117.5t-42 -159.5q-2 -74 37 -146.5t118 -120t193 -47.5q154 0 248 88t94 238q0 143 -89 226t-240 83q-111 0 -193 -44z" />
    <glyph glyph-name="seven" unicode="7" horiz-adv-x="1134" 
d="M479 0h-174l590 1276h-668v-209h-147v367h995v-138z" />
    <glyph glyph-name="eight" unicode="8" horiz-adv-x="1263" 
d="M969 1343.5q123 -96.5 123 -264.5q0 -109 -61.5 -189.5t-172.5 -123.5q141 -43 221 -137t80 -228q0 -190 -141 -299.5t-385 -109.5q-246 0 -388.5 108.5t-142.5 296.5q0 135 82 230.5t228 138.5q-115 45 -177.5 127t-62.5 190q0 166 124 261.5t335 95.5q215 0 338 -96.5z
M397 1248.5q-84 -64.5 -84 -179.5t84 -179.5t236 -64.5q150 0 233.5 64.5t83.5 179.5t-84 179.5t-233 64.5q-152 0 -236 -64.5zM357.5 615.5q-99.5 -72.5 -99.5 -199.5q0 -135 99.5 -210t275.5 -75q174 0 273.5 75t99.5 210q0 127 -99.5 199.5t-275.5 72.5
q-174 0 -273.5 -72.5z" />
    <glyph glyph-name="nine" unicode="9" horiz-adv-x="1236" 
d="M346.5 22q-109.5 28 -197.5 75l66 131q70 -41 157.5 -64.5t171.5 -23.5q211 0 326 151.5t115 413.5q0 49 -2 74q-47 -127 -159 -195t-269 -68q-211 0 -333 122t-122 329q0 219 132 347t353 128q262 0 410.5 -182t148.5 -512q0 -225 -71.5 -396t-204.5 -264.5t-313 -93.5
q-99 0 -208.5 28zM776 700q82 44 126 117.5t42 159.5q2 74 -37 146.5t-118 120t-193 47.5q-154 0 -248 -88t-94 -238q0 -143 89 -226t240 -83q111 0 193 44z" />
    <glyph glyph-name="colon" unicode=":" horiz-adv-x="401" 
d="M274.5 774q28.5 -31 28.5 -76t-28.5 -75.5t-69.5 -30.5q-43 0 -72 30.5t-29 75.5t29 76t72 31q41 0 69.5 -31zM274.5 166q28.5 -31 28.5 -76t-28.5 -75.5t-69.5 -30.5q-43 0 -72 30.5t-29 75.5t29 76t72 31q41 0 69.5 -31z" />
    <glyph glyph-name="semicolon" unicode=";" horiz-adv-x="405" 
d="M274.5 774q28.5 -31 28.5 -76t-28.5 -75.5t-69.5 -30.5q-43 0 -72 30.5t-29 75.5t29 76t72 31q41 0 69.5 -31zM274.5 164q28.5 -29 28.5 -76q0 -41 -31 -88l-96 -147h-90l68 149q-45 27 -45 88q0 45 27.5 74t68.5 29t69.5 -29z" />
    <glyph glyph-name="less" unicode="&#x3c;" horiz-adv-x="1005" 
d="M186 668l744 -324v-133l-854 381v153l854 381v-135z" />
    <glyph glyph-name="equal" unicode="=" horiz-adv-x="1005" 
d="M76 813v121h854v-121h-854zM76 389v121h854v-121h-854z" />
    <glyph glyph-name="greater" unicode="&#x3e;" horiz-adv-x="1005" 
d="M819 676l-743 323v134l854 -381v-154l-854 -381v135z" />
    <glyph glyph-name="question" unicode="?" horiz-adv-x="868" 
d="M126.5 1315q106.5 96 285.5 96q174 0 280.5 -85t106.5 -245q0 -80 -23.5 -139t-56.5 -100t-90 -97q-80 -76 -119 -137t-39 -157h-127q0 84 22.5 144t55.5 100t86 93q49 49 75.5 82t46 80t19.5 109q0 102 -68.5 155.5t-183.5 53.5t-182.5 -57.5t-73.5 -170.5l-129 4
q8 175 114.5 271zM475 166q29 -31 29 -76t-29 -75.5t-72 -30.5q-41 0 -69.5 30.5t-28.5 75.5t28.5 76t69.5 31q43 0 72 -31z" />
    <glyph glyph-name="at" unicode="@" horiz-adv-x="2019" 
d="M1491 1334.5q209 -115.5 327.5 -321.5t118.5 -464q0 -158 -45 -276.5t-125.5 -184t-187.5 -65.5q-90 0 -150.5 48t-68.5 138l-2 67q-61 -106 -167 -164.5t-235 -58.5q-135 0 -247.5 63.5t-178 176.5t-65.5 256q0 141 60.5 256t169 181.5t247.5 66.5q92 0 172 -31
t134.5 -79t76.5 -95v188h152v-766q0 -66 32.5 -100.5t83.5 -34.5q61 0 112.5 52.5t80.5 145.5t29 212q0 221 -99.5 398t-281 278.5t-414.5 101.5q-227 0 -413.5 -102.5t-293 -280.5t-106.5 -395q0 -213 102.5 -383t282.5 -266.5t401 -96.5q94 0 202 30t183 83l58 -115
q-84 -57 -209 -92t-234 -35q-258 0 -466 114t-326.5 313.5t-118.5 447.5q0 254 123 460.5t338 325.5t477 119t471 -115.5zM792.5 854q-77.5 -45 -120.5 -123t-43 -174q0 -98 43 -179t121.5 -128t177.5 -47q100 0 179 46t123 127t44 179q0 96 -44 175t-123 124t-181 45
q-99 0 -176.5 -45z" />
    <glyph glyph-name="A" unicode="A" horiz-adv-x="1470" 
d="M342 362l-160 -362h-174l643 1434h170l641 -1434h-178l-160 362h-782zM731 1247l-319 -727h643z" />
    <glyph glyph-name="B" unicode="B" horiz-adv-x="1466" 
d="M1161 1338.5q123 -95.5 123 -263.5q0 -127 -69.5 -212t-194.5 -111q156 -23 242 -119t86 -244q0 -182 -137.5 -285.5t-379.5 -103.5h-614v1434h604q217 0 340 -95.5zM381 815h432q145 0 225 60.5t80 173.5q0 109 -80 168t-225 59h-432v-461zM381 156h432
q176 0 272.5 66.5t96.5 189.5q0 117 -97.5 182t-271.5 65h-432v-503z" />
    <glyph glyph-name="C" unicode="C" horiz-adv-x="1433" 
d="M1112 1382.5q137 -55.5 242 -153.5l-99 -125q-84 84 -195.5 132t-228.5 48q-160 0 -294 -75.5t-211.5 -205t-77.5 -284.5q0 -154 77.5 -284t212 -205.5t293.5 -75.5q117 0 227.5 45t196.5 127l101 -113q-109 -102 -248 -161.5t-285 -59.5q-203 0 -372.5 97t-269 264
t-99.5 366q0 197 100.5 361.5t271.5 261t375 96.5q146 0 283 -55.5z" />
    <glyph glyph-name="D" unicode="D" horiz-adv-x="1615" 
d="M1171.5 1339.5q167.5 -94.5 265 -258t97.5 -364.5t-97.5 -365t-267.5 -258t-378 -94h-574v1434h580q207 0 374.5 -94.5zM381 156h418q158 0 288 72.5t205.5 200.5t75.5 286t-77 285.5t-208 201.5t-290 74h-412v-1120z" />
    <glyph glyph-name="E" unicode="E" horiz-adv-x="1333" 
d="M381 1276v-471h723v-158h-723v-491h836v-156h-1000v1434h973v-158h-809z" />
    <glyph glyph-name="F" unicode="F" horiz-adv-x="1153" 
d="M381 1276v-504h670v-158h-670v-614h-164v1434h911v-158h-747z" />
    <glyph glyph-name="G" unicode="G" horiz-adv-x="1542" 
d="M1362 700v-520q-109 -86 -250 -137t-283 -51q-205 0 -375.5 97t-271 263t-100.5 365t100.5 363.5t274.5 261t381 96.5q147 0 285.5 -52.5t242.5 -144.5l-94 -123q-88 78 -202 122t-232 44q-162 0 -297 -75.5t-214 -206t-79 -285.5q0 -156 80 -287t215 -207t297 -76
q96 0 194.5 32t182.5 89v432h145z" />
    <glyph glyph-name="H" unicode="H" horiz-adv-x="1626" 
d="M1245 0v631h-864v-631h-164v1434h164v-648h864v648h164v-1434h-164z" />
    <glyph glyph-name="I" unicode="I" horiz-adv-x="598" 
d="M217 0v1434h164v-1434h-164z" />
    <glyph glyph-name="J" unicode="J" horiz-adv-x="989" 
d="M698.5 106.5q-108.5 -114.5 -301.5 -114.5q-119 0 -220 53t-177 152l82 131q68 -80 148.5 -123t164.5 -43q119 0 182.5 69.5t63.5 202.5v842h-512v158h678v-1004q0 -209 -108.5 -323.5z" />
    <glyph glyph-name="K" unicode="K" horiz-adv-x="1431" 
d="M659 680l-278 -305v-375h-164v1434h164v-826l770 826h195l-568 -623l611 -811h-201z" />
    <glyph glyph-name="L" unicode="L" horiz-adv-x="1058" 
d="M1010 156v-156h-793v1434h164v-1278h629z" />
    <glyph glyph-name="M" unicode="M" horiz-adv-x="1886" 
d="M1516 0l-3 1182l-522 -1030h-98l-520 1030v-1182h-156v1434h203l524 -1033l522 1033h201v-1434h-151z" />
    <glyph glyph-name="N" unicode="N" horiz-adv-x="1628" 
d="M1241 0l-860 1151v-1151h-164v1434h170l860 -1153v1153h162v-1434h-168z" />
    <glyph glyph-name="O" unicode="O" horiz-adv-x="1665" 
d="M1210 1341.5q172 -96.5 272.5 -261.5t100.5 -363q0 -199 -100.5 -365t-272.5 -263t-376 -97q-207 0 -379 97t-272.5 263t-100.5 365t100.5 364.5t272.5 261t379 95.5q204 0 376 -96.5zM542 1206q-134 -76 -214 -205t-80 -284q0 -156 80 -286t214 -205.5t292 -75.5
t290.5 75.5t211.5 205.5t79 286t-79 284.5t-212 204.5t-290 76q-158 0 -292 -76z" />
    <glyph glyph-name="P" unicode="P" horiz-adv-x="1370" 
d="M1168.5 1308q146.5 -126 146.5 -356q0 -238 -146.5 -368.5t-412.5 -130.5h-375v-453h-164v1434h539q266 0 412.5 -126zM381 610h369q197 0 302 86t105 252q0 162 -105.5 245t-301.5 83h-369v-666z" />
    <glyph glyph-name="Q" unicode="Q" horiz-adv-x="1699" 
d="M1490 -254q-95 -41 -190 -41q-244 0 -450 287h-16q-207 0 -379 97t-272.5 263t-100.5 365t100.5 364.5t272.5 261t379 95.5q205 0 376.5 -96.5t272 -261.5t100.5 -363q0 -166 -71.5 -311.5t-197.5 -248t-286 -141.5q150 -160 291 -159q125 0 276 129l72 -123
q-82 -76 -177 -117zM328 431q80 -130 214 -205.5t292 -75.5t290.5 75.5t211.5 205.5t79 286t-79 284.5t-212 204.5t-290 76q-158 0 -292 -76t-214 -205t-80 -284q0 -156 80 -286z" />
    <glyph glyph-name="R" unicode="R" horiz-adv-x="1480" 
d="M858 457q-61 -4 -96 -4h-381v-453h-164v1434h545q268 0 416.5 -126t148.5 -356q0 -176 -83 -294.5t-238 -170.5l335 -487h-186zM1063.5 696q105.5 86 105.5 252q0 162 -105.5 245t-301.5 83h-381v-666h381q196 0 301.5 86z" />
    <glyph glyph-name="S" unicode="S" horiz-adv-x="1251" 
d="M887 1404q121 -36 211 -97l-70 -154q-92 61 -196.5 91t-198.5 30q-139 0 -222 -50t-83 -141q0 -78 46 -129t115.5 -79.5t190.5 -65.5q147 -47 236.5 -88t153 -121t63.5 -211q0 -119 -64.5 -208t-182.5 -138t-272 -49t-299 59.5t-249 159.5l73 147q98 -96 226.5 -149
t250.5 -53q156 0 246 60.5t90 162.5q0 80 -47 132t-116.5 81t-190.5 65q-145 43 -235.5 83t-153 119t-62.5 208q0 111 61.5 195t174.5 130t260 46q123 0 244 -36z" />
    <glyph glyph-name="T" unicode="T" horiz-adv-x="1142" 
d="M653 1276v-1276h-164v1276h-466v158h1099v-158h-469z" />
    <glyph glyph-name="U" unicode="U" horiz-adv-x="1572" 
d="M1229 150.5q-160 -158.5 -441 -158.5q-283 0 -443.5 158.5t-160.5 439.5v844h164v-844q0 -207 118 -323.5t322 -116.5q205 0 321 115.5t116 324.5v844h164v-844q0 -281 -160 -439.5z" />
    <glyph glyph-name="V" unicode="V" horiz-adv-x="1361" 
d="M594 0l-582 1434h176l494 -1244l496 1244h172l-586 -1434h-170z" />
    <glyph glyph-name="W" unicode="W" horiz-adv-x="2082" 
d="M1438 0l-387 1208l-392 -1208h-167l-480 1434h176l394 -1244l389 1242l164 2l393 -1244l389 1244h170l-481 -1434h-168z" />
    <glyph glyph-name="X" unicode="X" horiz-adv-x="1361" 
d="M1303 0h-197l-436 600l-432 -600h-193l526 737l-489 697h192l396 -553l399 553h193l-488 -689z" />
    <glyph glyph-name="Y" unicode="Y" horiz-adv-x="1280" 
d="M725 0h-162v485l-555 949h170l465 -748l459 748h168l-545 -942v-492z" />
    <glyph glyph-name="Z" unicode="Z" horiz-adv-x="1351" 
d="M303 156h961l-2 -156h-1174v131l950 1145h-923v158h1138v-131z" />
    <glyph glyph-name="bracketleft" unicode="[" horiz-adv-x="684" 
d="M362 1382v-1499h259v-137h-404v1774h404v-138h-259z" />
    <glyph glyph-name="backslash" unicode="\" horiz-adv-x="915" 
d="M914 -250l-639 1929h-142l641 -1929h140z" />
    <glyph glyph-name="bracketright" unicode="]" horiz-adv-x="843" 
d="M482 1382v-1499h-259v-137h404v1774h-404v-138h259z" />
    <glyph glyph-name="asciicircum" unicode="^" horiz-adv-x="1054" 
d="M534 974.094l-324 -707.627h-133l381 812.249h153l381 -812.249h-135z" />
    <glyph glyph-name="underscore" unicode="_" horiz-adv-x="1134" 
d="M0 -418v107h1135v-107h-1135z" />
    <glyph glyph-name="grave" unicode="`" 
d="M401 1257l-256 203l164 76l246 -279h-154z" />
    <glyph glyph-name="a" unicode="a" horiz-adv-x="1181" 
d="M864 166q-129 -174 -395 -174q-109 0 -192.5 43t-129 118.5t-45.5 168.5q0 141 106.5 224t297.5 85h354v63q0 121 -73.5 186.5t-215.5 65.5q-164 0 -342 -123l-67 117q115 76 212 110.5t228 34.5q199 0 306.5 -98t109.5 -274l2 -713h-156v166zM734 195.5
q97 64.5 128 177.5v129h-336q-274 0 -274 -174q0 -90 67.5 -143.5t180.5 -53.5q137 0 234 64.5z" />
    <glyph glyph-name="b" unicode="b" horiz-adv-x="1384" 
d="M1049.5 1015.5q117.5 -69.5 183 -194.5t65.5 -284q0 -158 -64.5 -282t-181 -192.5t-268.5 -68.5q-143 0 -250.5 62.5t-168.5 174.5v-231h-160v1520h160v-674q59 115 166.5 177t248.5 62q152 0 269.5 -69.5zM950 190.5q88 51.5 137.5 143.5t49.5 207t-49.5 206t-137.5 143
t-198 52q-113 0 -201 -51t-137 -143.5t-49 -206.5q0 -117 49 -208t137 -142.5t201 -51.5q110 0 198 51.5z" />
    <glyph glyph-name="c" unicode="c" horiz-adv-x="1148" 
d="M858.5 1041q104.5 -42 177.5 -117l-88 -113q-131 125 -321 125q-111 0 -198 -50t-136 -140.5t-49 -206.5q0 -117 49 -207t136 -141.5t198 -51.5q106 0 191 36t143 104l92 -99q-74 -88 -184.5 -137t-247.5 -49q-156 0 -277 68.5t-189.5 192.5t-68.5 284t69.5 283.5
t193.5 192t280 68.5q125 0 229.5 -42z" />
    <glyph glyph-name="d" unicode="d" horiz-adv-x="1390" 
d="M1186 0h-160v231q-61 -115 -168.5 -177t-251.5 -62q-152 0 -270.5 69.5t-184 194.5t-65.5 285t65.5 283.5t183.5 193t269 69.5q143 0 253 -62t169 -179v674h160v-1520zM838 186.5q88 51.5 138 143.5t50 207q0 117 -50 209t-138 144t-201 52t-202 -52t-139 -144.5
t-50 -208.5q0 -115 50 -207t139 -143.5t202 -51.5t201 51.5z" />
    <glyph glyph-name="e" unicode="e" horiz-adv-x="1204" 
d="M1008 920.5q129 -162.5 116 -443.5h-880q20 -158 126.5 -251t264.5 -93q100 0 185 35t149 100l88 -94q-78 -86 -189.5 -133t-244.5 -47q-158 0 -280 68.5t-189.5 192.5t-67.5 284t68.5 283.5t191.5 192t279 68.5q254 0 383 -162.5zM875.5 855q-97.5 91 -254.5 91
q-154 0 -256.5 -92t-120.5 -246h737q-8 156 -105.5 247z" />
    <glyph glyph-name="f" unicode="f" horiz-adv-x="663" 
d="M439.5 1327q-54.5 -51 -54.5 -141v-139h309v-132h-309v-915h-158v915h-139v132h139v118q0 113 48.5 196t127 125t170.5 42q135 -4 232 -76l-66 -129q-78 55 -164 55q-81 0 -135.5 -51z" />
    <glyph glyph-name="g" unicode="g" horiz-adv-x="1302" 
d="M1135 113q0 -156 -68 -272.5t-190.5 -179t-284.5 -62.5q-240 2 -442 155l73 123q82 -68 170 -101.5t193 -35.5q176 0 282.5 100.5t106.5 268.5v163q-57 -109 -159.5 -167t-237.5 -58q-143 0 -255 66.5t-174.5 185.5t-62.5 270q0 150 61.5 266.5t172 183t253.5 66.5
q137 0 239.5 -58t162.5 -167v219h160v-966zM797 231.5q84 49.5 131 136.5t47 195q0 111 -47 198t-131 136t-191 49q-106 0 -190 -49t-132 -136t-48 -198q0 -109 48 -195.5t132 -136t190 -49.5q107 0 191 49.5z" />
    <glyph glyph-name="h" unicode="h" horiz-adv-x="1355" 
d="M1085.5 973.5q108.5 -111.5 108.5 -307.5v-666h-160v623q0 143 -81 223t-224 80q-170 -2 -267 -110.5t-97 -285.5v-530h-160v1520h160v-682q106 244 419 247q193 0 301.5 -111.5z" />
    <glyph glyph-name="i" unicode="i" horiz-adv-x="546" 
d="M195 0v1079h157v-1079h-157zM347 1467.5q30 -31.5 30 -78.5t-30 -79t-75 -32t-74.5 31.5t-29.5 79.5q0 47 29.5 78.5t74.5 31.5t75 -31.5z" />
    <glyph glyph-name="j" unicode="j" horiz-adv-x="546" 
d="M346 1468.5q31 -32.5 31 -79.5t-31 -80t-78 -33q-45 0 -76.5 32.5t-31.5 80.5q0 47 31.5 79.5t76.5 32.5q47 0 78 -32.5zM262 -310q-86 -93 -219 -93q-123 0 -223 73l57 131q76 -55 156 -55q74 0 114.5 48t40.5 145v1140h160v-1120q0 -176 -86 -269z" />
    <glyph glyph-name="k" unicode="k" horiz-adv-x="1173" 
d="M365 309v-309h-160v1520h160v-994l555 553h188l-403 -417l446 -662h-190l-369 545z" />
    <glyph glyph-name="l" unicode="l" horiz-adv-x="569" 
d="M205 0v1520h160v-1520h-160z" />
    <glyph glyph-name="m" unicode="m" horiz-adv-x="2138" 
d="M1871.5 973.5q106.5 -111.5 106.5 -307.5v-666h-159v623q0 143 -80 224t-219 81q-166 -4 -259.5 -112.5t-93.5 -285.5v-530h-161v623q0 143 -79 224t-220 81q-164 -4 -259.5 -112.5t-95.5 -285.5v-530h-157v1079h157v-243q53 123 157.5 185t254.5 64q152 0 252 -73.5
t135 -208.5q49 141 158.5 210.5t267.5 71.5q188 0 294.5 -111.5z" />
    <glyph glyph-name="n" unicode="n" horiz-adv-x="1343" 
d="M1073.5 973.5q108.5 -111.5 108.5 -307.5v-666h-160v623q0 143 -81 223t-224 80q-158 -2 -253 -96.5t-110 -249.5v-580h-159v1079h159v-237q111 240 418 243q193 0 301.5 -111.5z" />
    <glyph glyph-name="o" unicode="o" horiz-adv-x="1265" 
d="M915.5 1014.5q124.5 -68.5 194.5 -192.5t70 -281q0 -160 -70 -284t-194.5 -193.5t-282.5 -69.5t-283 69.5t-194.5 193.5t-69.5 284q0 158 69.5 281.5t194.5 192t283 68.5t282.5 -68.5zM433 887q-89 -51 -138 -141.5t-49 -206.5q0 -117 49 -208t138 -142.5t200 -51.5
t200 51.5t138 142.5t49 208t-49 207t-138.5 141t-199.5 51q-111 0 -200 -51z" />
    <glyph glyph-name="p" unicode="p" horiz-adv-x="1384" 
d="M1049.5 1015.5q117.5 -69.5 183 -194.5t65.5 -284q0 -158 -64.5 -282t-181 -192.5t-268.5 -68.5q-143 0 -250.5 62.5t-168.5 174.5v-628h-160v1476h160v-233q59 115 166.5 177t248.5 62q152 0 269.5 -69.5zM950 190.5q88 51.5 137.5 143.5t49.5 207t-49.5 206t-137.5 143
t-198 52q-113 0 -201 -51t-137 -143.5t-49 -206.5q0 -117 49 -208t137 -142.5t201 -51.5q110 0 198 51.5z" />
    <glyph glyph-name="q" unicode="q" horiz-adv-x="1390" 
d="M1186 -397h-160v628q-61 -115 -168.5 -177t-251.5 -62q-152 0 -270.5 69.5t-184 194.5t-65.5 285t65.5 283.5t183.5 193t269 69.5q143 0 253 -62t169 -179v233h160v-1476zM838 186.5q88 51.5 138 143.5t50 207q0 117 -50 209t-138 144t-201 52t-202 -52t-139 -144.5
t-50 -208.5q0 -115 50 -207t139 -143.5t202 -51.5t201 51.5z" />
    <glyph glyph-name="r" unicode="r" horiz-adv-x="761" 
d="M506 1020.5q98 62.5 235 64.5v-161q-168 2 -270 -93.5t-117 -257.5v-573h-159v1079h159v-239q54 118 152 180.5z" />
    <glyph glyph-name="s" unicode="s" horiz-adv-x="927" 
d="M668 1059.5q90 -25.5 157 -72.5l-61 -127q-63 41 -141 64.5t-152 23.5q-96 0 -154.5 -35.5t-58.5 -107.5q0 -49 33 -82t81 -53.5t134 -44.5q113 -33 183.5 -66t120.5 -95.5t50 -162.5q0 -152 -113.5 -229.5t-281.5 -77.5q-117 0 -227.5 40t-186.5 111l62 121
q68 -63 165 -100t193 -37q102 0 166.5 40t64.5 118t-62 115.5t-191 74.5q-113 35 -179.5 65.5t-115 91t-48.5 157.5q0 147 106.5 220.5t268.5 73.5q97 0 187 -25.5z" />
    <glyph glyph-name="t" unicode="t" horiz-adv-x="798" 
d="M508 -8q-125 0 -200 76.5t-75 230.5v616h-155v129h155v285h158v-285l342 3v-132h-342v-587q0 -96 36 -138.5t108 -42.5q84 0 172 56l45 -129q-117 -80 -244 -82z" />
    <glyph glyph-name="u" unicode="u" horiz-adv-x="1325" 
d="M1130 0h-159v244q-104 -246 -410 -250q-188 0 -295.5 112.5t-107.5 307.5v665h159v-622q0 -143 80 -223t219 -80q166 2 260.5 111.5t94.5 283.5v530h159v-1079z" />
    <glyph glyph-name="v" unicode="v" horiz-adv-x="1019" 
d="M436 0l-428 1079h170l344 -913l342 913h162l-424 -1079h-166z" />
    <glyph glyph-name="w" unicode="w" horiz-adv-x="1769" 
d="M1210 0l-317 877l-315 -877h-166l-404 1079h168l320 -913l313 913h168l317 -913l316 913h166l-400 -1079h-166z" />
    <glyph glyph-name="x" unicode="x" horiz-adv-x="1083" 
d="M831 1079h177l-361 -524l387 -555h-186l-307 440l-318 -440h-180l393 555l-366 524h184l287 -409z" />
    <glyph glyph-name="y" unicode="y" horiz-adv-x="1028" 
d="M405.5 -342.5q-81.5 -63.5 -190.5 -63.5q-129 0 -227 80l67 133q72 -51 152 -51q63 0 113.5 39t82.5 113l46 100l-447 1071h168l358 -891l342 891h164l-495 -1233q-52 -125 -133.5 -188.5z" />
    <glyph glyph-name="z" unicode="z" horiz-adv-x="1077" 
d="M299 139l692 -2v-139l-885 2v121l676 817l-657 2v139l850 -2v-121z" />
    <glyph glyph-name="braceleft" unicode="{" horiz-adv-x="636" 
d="M357.5 697q-27.5 -46 -91.5 -66q63 -18 91 -64.5t28 -136.5v-399q0 -80 47 -116t158 -36v-137h-58q-156 0 -224 56.5t-68 187.5v452q0 63 -23.5 93t-75.5 30h-53v141h53q51 0 75 29t24 92v455q0 131 68.5 187.5t223.5 56.5h58v-138q-109 0 -157 -36.5t-48 -116.5v-397
q0 -91 -27.5 -137z" />
    <glyph glyph-name="bar" unicode="|" horiz-adv-x="512" 
d="M193 -248v1917h126v-1917h-126z" />
    <glyph glyph-name="braceright" unicode="}" horiz-adv-x="729" 
d="M416.5 697q27.5 -46 91.5 -66q-63 -18 -91 -64.5t-28 -136.5v-399q0 -80 -47 -116t-158 -36v-137h58q156 0 224 56.5t68 187.5v452q0 63 23.5 93t75.5 30h53v141h-53q-51 0 -75 29t-24 92v455q0 131 -68.5 187.5t-223.5 56.5h-58v-138q109 0 157 -36.5t48 -116.5v-397
q0 -91 27.5 -137z" />
    <glyph glyph-name="asciitilde" unicode="~" horiz-adv-x="1005" 
d="M413 767q42 -17 101 -52q47 -29 80 -43.5t61 -14.5q43 0 65.5 29t22.5 82h115q0 -119 -45 -181.5t-131 -62.5q-49 0 -93 18.5t-102 53.5q-49 29 -77.5 41t-57.5 12q-43 0 -65.5 -27.5t-22.5 -80.5h-114q0 119 45 181t131 62q45 0 87 -17z" />
    <glyph glyph-name="nonbreakingspace" unicode="&#xa0;" horiz-adv-x="561" 
 />
    <glyph glyph-name="exclamdown" unicode="&#xa1;" horiz-adv-x="413" 
d="M172 645h107l22 -631v-346h-153v346zM154 911q-29 31 -29 76t29 75.5t72 30.5q41 0 69.5 -30.5t28.5 -75.5t-28.5 -76t-69.5 -31q-43 0 -72 31z" />
    <glyph glyph-name="cent" unicode="&#xa2;" horiz-adv-x="1148" 
d="M891 52q-96 -48 -215 -56v-270h-125v272q-137 14 -242.5 87t-164 189.5t-58.5 264.5q0 145 58.5 263t164 190.5t242.5 86.5v299h125v-297q225 -16 360 -157l-88 -113q-115 109 -272 123v-793q182 16 285 138l92 -99q-66 -80 -162 -128zM329 276.5q85 -106.5 222 -131.5
v785q-139 -25 -223 -130.5t-84 -260.5q0 -156 85 -262.5z" />
    <glyph glyph-name="sterling" unicode="&#xa3;" horiz-adv-x="1107" 
d="M1032 0h-944v143h178v490h-178v127h178v241q0 211 104.5 325t299.5 114q113 0 213 -49.5t174 -141.5l-70 -131q-63 82 -140 124t-161 42q-125 0 -190.5 -72.5t-65.5 -212.5v-239h373v-127h-373v-490h602v-143z" />
    <glyph glyph-name="currency" unicode="&#xa4;" horiz-adv-x="1468" 
d="M1263.5 470q-32.5 -87 -92.5 -157l211 -213l-92 -100l-219 217q-152 -109 -338 -108q-92 0 -178 28.5t-156 81.5l-221 -219l-92 100l211 213q-121 150 -121 338q0 186 119 338l-209 211l92 100l217 -215q152 113 338 113q190 0 342 -113l215 215l92 -100l-206 -209
q57 -72 88.5 -159t31.5 -181t-32.5 -181zM362.5 451.5q57.5 -91.5 155.5 -144.5t215 -53q119 0 218.5 53t157.5 144.5t58 199.5q0 111 -58 203t-157.5 146.5t-218.5 54.5q-117 0 -215 -54.5t-155.5 -146.5t-57.5 -203q0 -108 57.5 -199.5z" />
    <glyph glyph-name="yen" unicode="&#xa5;" horiz-adv-x="1267" 
d="M1137 637v-82h-375l-35 -59v-138h410v-82h-410v-276h-164v276h-403v82h403v129l-41 68h-362v82h315l-465 797h168l465 -748l459 748h168l-461 -797h328z" />
    <glyph glyph-name="brokenbar" unicode="&#xa6;" horiz-adv-x="512" 
d="M193 954v715h126v-715h-126zM193 -248v715h126v-715h-126z" />
    <glyph glyph-name="section" unicode="&#xa7;" horiz-adv-x="966" 
d="M850 1323l-53 -109q-141 86 -293 86q-106 0 -172 -40.5t-66 -110.5q0 -57 36 -94t91.5 -59.5t147.5 -51.5q117 -37 186.5 -68.5t119.5 -91t50 -153.5t-68.5 -169t-162.5 -95q106 -41 155 -99.5t49 -146.5q0 -86 -50 -152.5t-140 -103.5t-205 -37q-123 0 -233.5 41
t-192.5 115l55 106q80 -68 174.5 -103.5t190.5 -35.5q111 0 184.5 47t73.5 121q0 55 -36 92t-90 60.5t-148 52.5q-115 37 -184.5 68.5t-120 90t-50.5 152.5q0 100 72 166.5t199 89.5q-131 47 -186.5 105.5t-55.5 146.5q0 125 103.5 201.5t273.5 76.5q186 0 346 -98z
M305.5 758q-65.5 -41 -65.5 -109q0 -82 85 -138t201 -56q104 0 167 45t63 118q0 82 -75 131.5t-200 49.5q-110 0 -175.5 -41z" />
    <glyph glyph-name="dieresis" unicode="&#xa8;" horiz-adv-x="763" 
d="M588.659 1470.01q28.3145 -29.7295 28.3145 -74.0869q0 -44.3584 -28.3145 -74.5596q-28.3135 -30.2012 -70.7832 -30.2012q-42.4707 0 -70.3125 29.7295t-27.8418 75.0312q0 44.3574 27.8418 74.0869t70.3125 29.7295q42.4697 0 70.7832 -29.7295zM267.659 1470.01
q28.3145 -29.7295 28.3145 -74.0869q0 -44.3584 -28.3145 -74.5596q-28.3135 -30.2012 -70.7832 -30.2012q-42.4707 0 -70.3125 29.7295t-27.8418 75.0312q0 44.3574 27.8418 74.0869t70.3125 29.7295q42.4697 0 70.7832 -29.7295z" />
    <glyph glyph-name="copyright" unicode="&#xa9;" horiz-adv-x="1550" 
d="M1125.5 1318q158.5 -93 250.5 -253t92 -348q0 -186 -92 -347t-251.5 -256.5t-352.5 -95.5q-190 0 -349 94.5t-250 254t-91 346.5q0 186 92 347t251 256t351 95q191 0 349.5 -93zM469 1235q-139 -82 -219 -220t-80 -302t79 -301.5t217 -218t306 -80.5t308.5 81.5t221 220
t80.5 302.5t-79.5 301t-219 218t-307.5 81t-307 -82zM929.5 1044.5q69.5 -28.5 123.5 -77.5l-56 -66q-92 86 -211 86q-78 0 -143 -36t-103 -98t-38 -136q0 -76 38 -139.5t103.5 -100.5t142.5 -37q55 0 111.5 22.5t99.5 61.5l56 -59q-55 -53 -126 -83t-145 -30
q-102 0 -187 48.5t-134 131t-49 183.5q0 98 50 180t136 130t188 48q74 0 143.5 -28.5z" />
    <glyph glyph-name="ordfeminine" unicode="&#xaa;" horiz-adv-x="778" 
d="M545 1053q-80 -119 -246 -119q-98 0 -157.5 52t-59.5 138q0 84 65.5 130t184.5 46h213v43q-2 66 -45 102t-127 36q-104 0 -221 -68l-33 86q143 80 278 80q125 0 193.5 -59.5t68.5 -163.5l3 -418h-117v115zM545 1141v94h-191q-78 0 -119.5 -26.5t-41.5 -75.5
q0 -51 38.5 -83t104.5 -32q152 0 209 123z" />
    <glyph glyph-name="guillemotleft" unicode="&#xab;" horiz-adv-x="874" 
d="M446 182h-139l-231 340l231 344h139l-219 -344zM761 182h-139l-231 340l231 344h139l-219 -344z" />
    <glyph glyph-name="logicalnot" unicode="&#xac;" horiz-adv-x="1128" 
d="M958 307h-120v369h-762v121h882v-490z" />
    <glyph glyph-name="softhyphen" unicode="&#xad;" horiz-adv-x="745" 
d="M131 561v119h481v-119h-481z" />
    <glyph glyph-name="registered" unicode="&#xae;" horiz-adv-x="1550" 
d="M1125.5 1318q158.5 -93 250.5 -253t92 -348q0 -186 -92 -347t-251.5 -256.5t-352.5 -95.5q-190 0 -349 94.5t-250 254t-91 346.5q0 186 92 347t251 256t351 95q191 0 349.5 -93zM1080.5 194.5q140.5 81.5 221 220t80.5 302.5t-79.5 301t-219 218t-307.5 81t-307 -82
t-219 -220t-80 -302t79 -301.5t217 -218t306 -80.5t308.5 81.5zM1033 702.5q-42 -59.5 -120 -84.5l172 -245h-102l-152 229q-14 -2 -43 -2h-188v-227h-86v719h274q139 0 213 -62.5t74 -179.5q0 -88 -42 -147.5zM938 723q53 45 53 127q0 80 -53 122t-150 42h-188v-336h188
q97 0 150 45z" />
    <glyph glyph-name="macron" unicode="&#xaf;" 
d="M113 1323v127h493v-127h-493z" />
    <glyph glyph-name="degree" unicode="&#xb0;" horiz-adv-x="671" 
d="M562.5 1580q70.5 -69 70.5 -163t-70.5 -161.5t-167.5 -67.5q-96 0 -164.5 67.5t-68.5 161.5t69.5 163t163.5 69q97 0 167.5 -69zM286 1522q-46 -45 -46 -105q0 -59 46 -103t109 -44q66 0 113 44t47 103t-47 104.5t-113 45.5q-63 0 -109 -45z" />
    <glyph glyph-name="plusminus" unicode="&#xb1;" horiz-adv-x="1005" 
d="M559 724.513v-365.77h-110v365.77h-373v117.322h373v365.769h110v-365.769h371v-117.322h-371zM76 67v119h854v-119h-854z" />
    <glyph glyph-name="twosuperior" unicode="&#xb2;" horiz-adv-x="778" 
d="M573.5 1380.5q73.5 -57.5 73.5 -153.5q0 -119 -158 -273l-256 -260h459v-102h-610v90l326 338q51 51 81.5 102.5t30.5 89.5q0 55 -43 87t-119 32q-57 0 -120.5 -28.5t-116.5 -77.5l-51 92q68 57 147.5 89t159.5 32q123 0 196.5 -57.5z" />
    <glyph glyph-name="threesuperior" unicode="&#xb3;" horiz-adv-x="712" 
d="M557 1008.5q70 -60.5 70 -158.5q0 -119 -84 -190.5t-228 -71.5q-78 0 -153.5 23.5t-128.5 62.5l51 98q45 -41 104.5 -63.5t118.5 -22.5q94 0 147.5 44t53.5 118q0 72 -53.5 109.5t-149.5 37.5h-112v74l253 264h-376v97h516v-76l-260 -275l47 -2q114 -8 184 -68.5z" />
    <glyph glyph-name="acute" unicode="&#xb4;" 
d="M307 1257h-153l245 279l162 -78z" />
    <glyph glyph-name="mu" unicode="&#xb5;" horiz-adv-x="1370" 
d="M1176 0h-160v244q-104 -246 -410 -250q-145 0 -241 65v-456h-160v759q-2 16 -2 52v665h162v-665q12 -123 89.5 -191.5t207.5 -68.5q166 2 260 111.5t94 283.5v530h160v-1079z" />
    <glyph glyph-name="paragraph" unicode="&#xb6;" horiz-adv-x="1212" 
d="M870 -225v1634h-309v-1634h-125v999q-25 -2 -69 -2q-133 0 -215 58.5t-115 141.5t-33 167q0 102 46 188t144.5 139.5t247.5 53.5h553v-1745h-125z" />
    <glyph glyph-name="periodcentered" unicode="&#xb7;" horiz-adv-x="401" 
d="M269.5 651.5q27.5 -28.5 27.5 -73.5t-27.5 -76t-68.5 -31t-69 30.5t-28 76.5q0 45 28 73.5t69 28.5t68.5 -28.5z" />
    <glyph glyph-name="cedilla" unicode="&#xb8;" 
d="M501 -152q40 -41 40 -106q2 -82 -54.5 -132t-144.5 -50q-45 0 -90 13t-76 36l35 88q25 -20 57.5 -30.5t63.5 -10.5q49 0 79.5 28.5t28.5 67.5q0 35 -27.5 60.5t-74.5 25.5q-39 0 -68 -6l78 186h101l-54 -120q66 -9 106 -50z" />
    <glyph glyph-name="onesuperior" unicode="&#xb9;" horiz-adv-x="520" 
d="M217 1327h-174v107h295v-842h-121v735z" />
    <glyph glyph-name="ordmasculine" unicode="&#xba;" horiz-adv-x="823" 
d="M656.5 1490q95.5 -89 95.5 -233q0 -143 -95.5 -233t-244.5 -90q-152 0 -245 90t-93 233t94 232.5t244 89.5q149 0 244.5 -89zM252.5 1415.5q-62.5 -61.5 -62.5 -160.5q0 -98 61.5 -159.5t160.5 -61.5q98 0 158.5 61.5t60.5 159.5t-61.5 160t-157.5 62q-97 0 -159.5 -61.5
z" />
    <glyph glyph-name="guillemotright" unicode="&#xbb;" horiz-adv-x="888" 
d="M156 868h139l231 -342l-231 -344h-139l221 344zM471 868h139l231 -342l-231 -344h-139l221 344z" />
    <glyph glyph-name="onequarter" unicode="&#xbc;" horiz-adv-x="1589" 
d="M217 1327h-174v107h295v-842h-121v735zM1153 1434h158l-1072 -1434h-159zM1288 535h115v-226h129v-96h-129v-213h-115v213h-418v94l306 535h118l-301 -533h295v226z" />
    <glyph glyph-name="onehalf" unicode="&#xbd;" horiz-adv-x="1636" 
d="M217 1327h-174v107h295v-842h-121v735zM1153 1434h158l-1072 -1434h-159zM1430.5 788.5q74.5 -57.5 74.5 -151.5q0 -121 -158 -275l-256 -260h459v-102h-610v90l326 338q51 51 81.5 103.5t30.5 89.5q0 55 -43 86.5t-119 31.5q-57 0 -120.5 -28.5t-116.5 -75.5l-51 92
q70 57 148.5 88t158.5 31q121 0 195.5 -57.5z" />
    <glyph glyph-name="threequarters" unicode="&#xbe;" horiz-adv-x="1722" 
d="M557 1008.5q70 -60.5 70 -158.5q0 -119 -84 -190.5t-228 -71.5q-78 0 -153.5 23.5t-128.5 62.5l51 98q45 -41 104.5 -63.5t118.5 -22.5q94 0 147.5 44t53.5 118q0 72 -53.5 109.5t-149.5 37.5h-112v74l253 264h-376v97h516v-76l-260 -275l47 -2q114 -8 184 -68.5z
M1284 1434h158l-1072 -1434h-159zM1421 535h115v-226h129v-96h-129v-213h-115v213h-418v94l306 535h118l-301 -533h295v226z" />
    <glyph glyph-name="questiondown" unicode="&#xbf;" horiz-adv-x="868" 
d="M741.5 -238q-106.5 -96 -285.5 -96q-174 0 -280.5 85t-106.5 245q0 80 23.5 139t56.5 100t90 97q80 76 119 137t39 157h127q0 -84 -22.5 -144t-55.5 -100t-86 -93q-49 -49 -75.5 -82t-46 -80t-19.5 -109q0 -102 68.5 -155.5t183.5 -53.5t182.5 57.5t73.5 170.5l129 -4
q-8 -175 -114.5 -271zM393 911q-29 31 -29 76t29 75.5t72 30.5q41 0 69.5 -30.5t28.5 -75.5t-28.5 -76t-69.5 -31q-43 0 -72 31z" />
    <glyph glyph-name="Agrave" unicode="&#xc0;" horiz-adv-x="1470" 
d="M342 362l-160 -362h-174l643 1434h170l641 -1434h-178l-160 362h-782zM731 1247l-319 -727h643zM684 1611l-256 203l164 76l246 -279h-154z" />
    <glyph glyph-name="Aacute" unicode="&#xc1;" horiz-adv-x="1470" 
d="M342 362l-160 -362h-174l643 1434h170l641 -1434h-178l-160 362h-782zM731 1247l-319 -727h643zM780 1611h-153l245 279l162 -78z" />
    <glyph glyph-name="Acircumflex" unicode="&#xc2;" horiz-adv-x="1470" 
d="M342 362l-160 -362h-174l643 1434h170l641 -1434h-178l-160 362h-782zM731 1247l-319 -727h643zM883 1616l-148 184l-147 -184h-139l209 266h155l209 -266h-139z" />
    <glyph glyph-name="Atilde" unicode="&#xc3;" horiz-adv-x="1470" 
d="M342 362l-160 -362h-174l643 1434h170l641 -1434h-178l-160 362h-782zM731 1247l-319 -727h643zM672 1861.5q33 -18.5 74 -51.5q37 -29 58.5 -41t43.5 -12q88 0 88 106h107q0 -113 -43 -172t-127 -59q-43 0 -77 18.5t-75 53.5q-33 27 -53.5 39t-42.5 12q-88 0 -88 -107
h-107q0 113 43 172.5t127 59.5q39 0 72 -18.5z" />
    <glyph glyph-name="Adieresis" unicode="&#xc4;" horiz-adv-x="1470" 
d="M495.5 1679.5q-28.5 30.5 -28.5 75.5t28.5 75t69.5 30t70 -30t29 -75t-29 -75.5t-70 -30.5t-69.5 30.5zM835.5 1679.5q-28.5 30.5 -28.5 75.5t28.5 75t69.5 30t70 -30t29 -75t-29 -75.5t-70 -30.5t-69.5 30.5zM342 362l-160 -362h-174l643 1434h170l641 -1434h-178
l-160 362h-782zM731 1247l-319 -727h643z" />
    <glyph glyph-name="Aring" unicode="&#xc5;" horiz-adv-x="1470" 
d="M342 362l-160 -362h-174l621 1382q-61 29 -97 87.5t-36 125.5q0 63 32.5 118.5t88 88.5t120.5 33q66 0 122 -33t89 -88t33 -119q0 -70 -37 -127t-98 -88l616 -1380h-178l-160 362h-782zM625 1488q47 -44 112 -44q66 0 114 44t48 107q0 61 -48 105.5t-114 44.5t-112.5 -44
t-46.5 -106q0 -63 47 -107zM731 1247l-319 -727h643z" />
    <glyph glyph-name="AE" unicode="&#xc6;" horiz-adv-x="2103" 
d="M1985 0h-1000v389h-575l-228 -389h-174l846 1434h1104v-158h-809v-473h725v-156h-725v-489h836v-158zM985 1288h-51l-442 -760h493v760z" />
    <glyph glyph-name="Ccedilla" unicode="&#xc7;" horiz-adv-x="1433" 
d="M937 -152q40 -41 40 -106q2 -82 -54.5 -132t-144.5 -50q-45 0 -90 13t-76 36l35 88q25 -20 57.5 -30.5t63.5 -10.5q49 0 80 28.5t29 67.5q0 35 -28 60.5t-75 25.5q-39 0 -67 -6l67 162q-193 12 -351.5 111.5t-249.5 260t-91 353.5q0 197 100.5 361.5t271.5 261t375 96.5
q145 0 282.5 -55.5t242.5 -153.5l-99 -125q-84 84 -195.5 132t-228.5 48q-160 0 -294 -75.5t-211.5 -205t-77.5 -284.5q0 -154 77.5 -284t212 -205.5t293.5 -75.5q117 0 227.5 45t196.5 127l101 -113q-100 -94 -225 -152.5t-257 -66.5l-43 -96q66 -9 106 -50z" />
    <glyph glyph-name="Egrave" unicode="&#xc8;" horiz-adv-x="1333" 
d="M381 1276v-471h723v-158h-723v-491h836v-156h-1000v1434h973v-158h-809zM659 1611l-256 203l164 76l246 -279h-154z" />
    <glyph glyph-name="Eacute" unicode="&#xc9;" horiz-adv-x="1333" 
d="M381 1276v-471h723v-158h-723v-491h836v-156h-1000v1434h973v-158h-809zM756 1611h-153l245 279l162 -78z" />
    <glyph glyph-name="Ecircumflex" unicode="&#xca;" horiz-adv-x="1333" 
d="M381 1276v-471h723v-158h-723v-491h836v-156h-1000v1434h973v-158h-809zM858 1616l-148 184l-147 -184h-139l209 266h155l209 -266h-139z" />
    <glyph glyph-name="Edieresis" unicode="&#xcb;" horiz-adv-x="1333" 
d="M610.5 1830q28.5 -30 28.5 -75t-28.5 -75.5t-69.5 -30.5t-70 30.5t-29 75.5t29 75t70 30t69.5 -30zM950.5 1830q28.5 -30 28.5 -75t-28.5 -75.5t-69.5 -30.5t-70 30.5t-29 75.5t29 75t70 30t69.5 -30zM381 1276v-471h723v-158h-723v-491h836v-156h-1000v1434h973v-158
h-809z" />
    <glyph glyph-name="Igrave" unicode="&#xcc;" horiz-adv-x="598" 
d="M217 0v1434h164v-1434h-164zM247 1611l-256 203l164 76l246 -279h-154z" />
    <glyph glyph-name="Iacute" unicode="&#xcd;" horiz-adv-x="598" 
d="M217 0v1434h164v-1434h-164zM342 1611h-153l245 279l162 -78z" />
    <glyph glyph-name="Icircumflex" unicode="&#xce;" horiz-adv-x="598" 
d="M217 0v1434h164v-1434h-164zM447 1616l-148 184l-147 -184h-139l209 266h155l209 -266h-139z" />
    <glyph glyph-name="Idieresis" unicode="&#xcf;" horiz-adv-x="598" 
d="M198.5 1830q28.5 -30 28.5 -75t-28.5 -75.5t-69.5 -30.5t-69.5 30.5t-28.5 75.5t28.5 75t69.5 30t69.5 -30zM538.5 1830q28.5 -30 28.5 -75t-28.5 -75.5t-69.5 -30.5t-69.5 30.5t-28.5 75.5t28.5 75t69.5 30t69.5 -30zM217 0v1434h164v-1434h-164z" />
    <glyph glyph-name="Eth" unicode="&#xd0;" horiz-adv-x="1640" 
d="M1196 1339.5q168 -94.5 265.5 -258t97.5 -364.5t-97.5 -365t-267.5 -258t-379 -94h-573v668h-242v106h242v660h579q207 0 375 -94.5zM1111 228.5q130 72.5 206 200.5t76 286t-77 285.5t-208 201.5t-291 74h-411v-502h456v-106h-456v-512h417q158 0 288 72.5z" />
    <glyph glyph-name="Ntilde" unicode="&#xd1;" horiz-adv-x="1628" 
d="M1241 0l-860 1151v-1151h-164v1434h170l860 -1153v1153h162v-1434h-168zM750 1861.5q33 -18.5 74 -51.5q37 -29 58.5 -41t43.5 -12q88 0 88 106h107q0 -113 -43 -172t-127 -59q-43 0 -77 18.5t-75 53.5q-33 27 -53.5 39t-42.5 12q-88 0 -88 -107h-107q0 113 43 172.5
t127 59.5q39 0 72 -18.5z" />
    <glyph glyph-name="Ograve" unicode="&#xd2;" horiz-adv-x="1665" 
d="M1210 1341.5q172 -96.5 272.5 -261.5t100.5 -363q0 -199 -100.5 -365t-272.5 -263t-376 -97q-207 0 -379 97t-272.5 263t-100.5 365t100.5 364.5t272.5 261t379 95.5q204 0 376 -96.5zM542 1206q-134 -76 -214 -205t-80 -284q0 -156 80 -286t214 -205.5t292 -75.5
t290.5 75.5t211.5 205.5t79 286t-79 284.5t-212 204.5t-290 76q-158 0 -292 -76zM776 1611l-256 203l164 76l246 -279h-154z" />
    <glyph glyph-name="Oacute" unicode="&#xd3;" horiz-adv-x="1665" 
d="M1210 1341.5q172 -96.5 272.5 -261.5t100.5 -363q0 -199 -100.5 -365t-272.5 -263t-376 -97q-207 0 -379 97t-272.5 263t-100.5 365t100.5 364.5t272.5 261t379 95.5q204 0 376 -96.5zM542 1206q-134 -76 -214 -205t-80 -284q0 -156 80 -286t214 -205.5t292 -75.5
t290.5 75.5t211.5 205.5t79 286t-79 284.5t-212 204.5t-290 76q-158 0 -292 -76zM870 1611h-153l245 279l162 -78z" />
    <glyph glyph-name="Ocircumflex" unicode="&#xd4;" horiz-adv-x="1665" 
d="M1210 1341.5q172 -96.5 272.5 -261.5t100.5 -363q0 -199 -100.5 -365t-272.5 -263t-376 -97q-207 0 -379 97t-272.5 263t-100.5 365t100.5 364.5t272.5 261t379 95.5q204 0 376 -96.5zM542 1206q-134 -76 -214 -205t-80 -284q0 -156 80 -286t214 -205.5t292 -75.5
t290.5 75.5t211.5 205.5t79 286t-79 284.5t-212 204.5t-290 76q-158 0 -292 -76zM975 1616l-148 184l-147 -184h-139l209 266h155l209 -266h-139z" />
    <glyph glyph-name="Otilde" unicode="&#xd5;" horiz-adv-x="1665" 
d="M1210 1341.5q172 -96.5 272.5 -261.5t100.5 -363q0 -199 -100.5 -365t-272.5 -263t-376 -97q-207 0 -379 97t-272.5 263t-100.5 365t100.5 364.5t272.5 261t379 95.5q204 0 376 -96.5zM542 1206q-134 -76 -214 -205t-80 -284q0 -156 80 -286t214 -205.5t292 -75.5
t290.5 75.5t211.5 205.5t79 286t-79 284.5t-212 204.5t-290 76q-158 0 -292 -76zM762 1861.5q33 -18.5 74 -51.5q37 -29 58.5 -41t43.5 -12q88 0 88 106h107q0 -113 -43 -172t-127 -59q-43 0 -77 18.5t-75 53.5q-33 27 -53.5 39t-42.5 12q-88 0 -88 -107h-107
q0 113 43 172.5t127 59.5q39 0 72 -18.5z" />
    <glyph glyph-name="Odieresis" unicode="&#xd6;" horiz-adv-x="1665" 
d="M1210 1341.5q172 -96.5 272.5 -261.5t100.5 -363q0 -199 -100.5 -365t-272.5 -263t-376 -97q-207 0 -379 97t-272.5 263t-100.5 365t100.5 364.5t272.5 261t379 95.5q204 0 376 -96.5zM542 1206q-134 -76 -214 -205t-80 -284q0 -156 80 -286t214 -205.5t292 -75.5
t290.5 75.5t211.5 205.5t79 286t-79 284.5t-212 204.5t-290 76q-158 0 -292 -76zM870.659 1777.01q28.3145 -29.7295 28.3145 -74.0869q0 -44.3584 -28.3145 -74.5596q-28.3135 -30.2012 -70.7832 -30.2012q-42.4707 0 -70.3125 29.7295t-27.8418 75.0312
q0 44.3574 27.8418 74.0869t70.3125 29.7295q42.4697 0 70.7832 -29.7295zM870.659 1777.01q28.3145 -29.7295 28.3145 -74.0869q0 -44.3584 -28.3145 -74.5596q-28.3135 -30.2012 -70.7832 -30.2012q-42.4707 0 -70.3125 29.7295t-27.8418 75.0312
q0 44.3574 27.8418 74.0869t70.3125 29.7295q42.4697 0 70.7832 -29.7295z" />
    <glyph glyph-name="multiply" unicode="&#xd7;" horiz-adv-x="1005" 
d="M844 401l-78 -86l-262 265l-262 -265l-78 86l258 261l-258 260l78 86l262 -265l262 265l78 -86l-258 -260z" />
    <glyph glyph-name="Oslash" unicode="&#xd8;" horiz-adv-x="1665" 
d="M1343.5 1249.5q112.5 -100.5 176 -239t63.5 -293.5q0 -199 -100.5 -365t-272.5 -263t-376 -97q-100 0 -207 26l-92 -280h-105l105 313q-205 84 -329 263.5t-124 402.5q0 199 100.5 364.5t272.5 261t379 95.5q66 0 155 -15l80 242h105l-89 -268q146 -47 258.5 -147.5z
M340 410.5q92 -138.5 244 -207.5l356 1069q-57 10 -106 10q-158 0 -292 -76t-214 -205t-80 -284q0 -168 92 -306.5zM1124 225.5q133 75.5 212 205.5t79 286q0 180 -105.5 324.5t-275.5 205.5l-356 -1077q70 -20 156 -20q157 0 290 75.5z" />
    <glyph glyph-name="Ugrave" unicode="&#xd9;" horiz-adv-x="1572" 
d="M1229 150.5q-160 -158.5 -441 -158.5q-283 0 -443.5 158.5t-160.5 439.5v844h164v-844q0 -207 118 -323.5t322 -116.5q205 0 321 115.5t116 324.5v844h164v-844q0 -281 -160 -439.5zM737 1611l-256 203l164 76l246 -279h-154z" />
    <glyph glyph-name="Uacute" unicode="&#xda;" horiz-adv-x="1572" 
d="M1229 150.5q-160 -158.5 -441 -158.5q-283 0 -443.5 158.5t-160.5 439.5v844h164v-844q0 -207 118 -323.5t322 -116.5q205 0 321 115.5t116 324.5v844h164v-844q0 -281 -160 -439.5zM831 1611h-153l245 279l162 -78z" />
    <glyph glyph-name="Ucircumflex" unicode="&#xdb;" horiz-adv-x="1572" 
d="M1229 150.5q-160 -158.5 -441 -158.5q-283 0 -443.5 158.5t-160.5 439.5v844h164v-844q0 -207 118 -323.5t322 -116.5q205 0 321 115.5t116 324.5v844h164v-844q0 -281 -160 -439.5zM934 1616l-148 184l-147 -184h-139l209 266h155l209 -266h-139z" />
    <glyph glyph-name="Udieresis" unicode="&#xdc;" horiz-adv-x="1572" 
d="M1229 150.5q-160 -158.5 -441 -158.5q-283 0 -443.5 158.5t-160.5 439.5v844h164v-844q0 -207 118 -323.5t322 -116.5q205 0 321 115.5t116 324.5v844h164v-844q0 -281 -160 -439.5zM831.659 1777.01q28.3145 -29.7295 28.3145 -74.0869q0 -44.3584 -28.3145 -74.5596
q-28.3135 -30.2012 -70.7832 -30.2012q-42.4707 0 -70.3125 29.7295t-27.8418 75.0312q0 44.3574 27.8418 74.0869t70.3125 29.7295q42.4697 0 70.7832 -29.7295zM831.659 1777.01q28.3145 -29.7295 28.3145 -74.0869q0 -44.3584 -28.3145 -74.5596
q-28.3135 -30.2012 -70.7832 -30.2012q-42.4707 0 -70.3125 29.7295t-27.8418 75.0312q0 44.3574 27.8418 74.0869t70.3125 29.7295q42.4697 0 70.7832 -29.7295z" />
    <glyph glyph-name="Yacute" unicode="&#xdd;" horiz-adv-x="1280" 
d="M725 0h-162v485l-555 949h170l465 -748l459 748h168l-545 -942v-492zM684 1611h-153l245 279l162 -78z" />
    <glyph glyph-name="Thorn" unicode="&#xde;" horiz-adv-x="1376" 
d="M1165.5 1101q155.5 -120 155.5 -349q0 -238 -155.5 -363t-452.5 -125h-332v-264h-164v1434h164v-213h332q297 0 452.5 -120zM1153 748q0 330 -446 329h-326v-669h326q446 0 446 340z" />
    <glyph glyph-name="germandbls" unicode="&#xdf;" horiz-adv-x="1329" 
d="M915.5 1480q102.5 -48 160 -136.5t57.5 -204.5q0 -129 -72 -227.5t-193 -133.5q158 -27 250 -119t92 -237q0 -123 -63.5 -219.5t-181 -149.5t-273.5 -53h-108v133h118q158 0 255.5 79t97.5 204q0 129 -105.5 203.5t-283.5 74.5h-21v131q152 0 242 79t90 212
q0 125 -82 199t-217 74q-154 0 -244 -102.5t-90 -272.5v-1014h-160v1004q0 158 60.5 276.5t172 183t263.5 64.5q133 0 235.5 -48z" />
    <glyph glyph-name="agrave" unicode="&#xe0;" horiz-adv-x="1181" 
d="M864 166q-129 -174 -395 -174q-109 0 -192.5 43t-129 118.5t-45.5 168.5q0 141 106.5 224t297.5 85h354v63q0 121 -73.5 186.5t-215.5 65.5q-164 0 -342 -123l-67 117q115 76 212 110.5t228 34.5q199 0 306.5 -98t109.5 -274l2 -713h-156v166zM734 195.5
q97 64.5 128 177.5v129h-336q-274 0 -274 -174q0 -90 67.5 -143.5t180.5 -53.5q137 0 234 64.5zM532 1257l-256 203l164 76l246 -279h-154z" />
    <glyph glyph-name="aacute" unicode="&#xe1;" horiz-adv-x="1181" 
d="M864 166q-129 -174 -395 -174q-109 0 -192.5 43t-129 118.5t-45.5 168.5q0 141 106.5 224t297.5 85h354v63q0 121 -73.5 186.5t-215.5 65.5q-164 0 -342 -123l-67 117q115 76 212 110.5t228 34.5q199 0 306.5 -98t109.5 -274l2 -713h-156v166zM734 195.5
q97 64.5 128 177.5v129h-336q-274 0 -274 -174q0 -90 67.5 -143.5t180.5 -53.5q137 0 234 64.5zM626 1257h-153l245 279l162 -78z" />
    <glyph glyph-name="acircumflex" unicode="&#xe2;" horiz-adv-x="1181" 
d="M864 166q-129 -174 -395 -174q-109 0 -192.5 43t-129 118.5t-45.5 168.5q0 141 106.5 224t297.5 85h354v63q0 121 -73.5 186.5t-215.5 65.5q-164 0 -342 -123l-67 117q115 76 212 110.5t228 34.5q199 0 306.5 -98t109.5 -274l2 -713h-156v166zM734 195.5
q97 64.5 128 177.5v129h-336q-274 0 -274 -174q0 -90 67.5 -143.5t180.5 -53.5q137 0 234 64.5zM729 1262l-148 184l-147 -184h-139l209 266h155l209 -266h-139z" />
    <glyph glyph-name="atilde" unicode="&#xe3;" horiz-adv-x="1181" 
d="M864 166q-129 -174 -395 -174q-109 0 -192.5 43t-129 118.5t-45.5 168.5q0 141 106.5 224t297.5 85h354v63q0 121 -73.5 186.5t-215.5 65.5q-164 0 -342 -123l-67 117q115 76 212 110.5t228 34.5q199 0 306.5 -98t109.5 -274l2 -713h-156v166zM734 195.5
q97 64.5 128 177.5v129h-336q-274 0 -274 -174q0 -90 67.5 -143.5t180.5 -53.5q137 0 234 64.5zM518 1507.5q33 -18.5 74 -51.5q37 -29 58.5 -41t43.5 -12q88 0 88 106h107q0 -113 -43 -172t-127 -59q-43 0 -77 18.5t-75 53.5q-33 27 -53.5 39t-42.5 12q-88 0 -88 -107h-107
q0 113 43 172.5t127 59.5q39 0 72 -18.5z" />
    <glyph glyph-name="adieresis" unicode="&#xe4;" horiz-adv-x="1181" 
d="M342 1325q-29 31 -29 76t29 74.5t70 29.5t69.5 -29.5t28.5 -74.5t-28.5 -76t-69.5 -31t-70 31zM682 1325q-29 31 -29 76t29 74.5t70 29.5t69.5 -29.5t28.5 -74.5t-28.5 -76t-69.5 -31t-70 31zM864 166q-129 -174 -395 -174q-109 0 -192.5 43t-129 118.5t-45.5 168.5
q0 141 106.5 224t297.5 85h354v63q0 121 -73.5 186.5t-215.5 65.5q-164 0 -342 -123l-67 117q115 76 212 110.5t228 34.5q199 0 306.5 -98t109.5 -274l2 -713h-156v166zM734 195.5q97 64.5 128 177.5v129h-336q-274 0 -274 -174q0 -90 67.5 -143.5t180.5 -53.5
q137 0 234 64.5z" />
    <glyph glyph-name="aring" unicode="&#xe5;" horiz-adv-x="1181" 
d="M864 166q-129 -174 -395 -174q-109 0 -192.5 43t-129 118.5t-45.5 168.5q0 141 106.5 224t297.5 85h354v63q0 121 -73.5 186.5t-215.5 65.5q-164 0 -342 -123l-67 117q115 76 212 110.5t228 34.5q199 0 306.5 -98t109.5 -274l2 -713h-156v166zM734 195.5
q97 64.5 128 177.5v129h-336q-274 0 -274 -174q0 -90 67.5 -143.5t180.5 -53.5q137 0 234 64.5zM748.5 1553.5q70.5 -68.5 70.5 -162.5t-70.5 -164t-167.5 -70q-96 0 -165.5 68.5t-69.5 165.5q0 94 69.5 162.5t165.5 68.5q97 0 167.5 -68.5zM471 1494q-47 -44 -47 -103
q0 -61 46 -105.5t111 -44.5q66 0 113 44t47 106q0 59 -47 103t-113 44q-63 0 -110 -44z" />
    <glyph glyph-name="ae" unicode="&#xe6;" horiz-adv-x="2004" 
d="M1682.5 1011.5q119.5 -73.5 183 -204.5t61.5 -301h-901q12 -170 119.5 -271.5t273.5 -101.5q100 0 185.5 35t148.5 100l88 -94q-80 -86 -189.5 -133t-242.5 -47q-160 0 -282.5 74.5t-184.5 207.5q-66 -141 -186.5 -212.5t-286.5 -71.5t-266.5 90t-100.5 231t107.5 218
t298.5 77h356v86q-2 121 -75.5 186.5t-217.5 65.5q-176 0 -364 -123l-45 121q223 141 440 141q143 0 242.5 -53t144.5 -151q70 96 177.5 150t238.5 54q158 0 277.5 -73.5zM1660 859q-97 99 -253 99t-260.5 -98t-120.5 -258h741q-10 158 -107 257zM893 446l-27 7v59h-329
q-135 0 -210 -48t-75 -136q0 -96 68.5 -154.5t181.5 -58.5q137 0 234.5 65.5t152.5 210.5l20 -26q-12 52 -16 81z" />
    <glyph glyph-name="ccedilla" unicode="&#xe7;" horiz-adv-x="1148" 
d="M889 52q-96 -48 -217 -56l-43 -98q66 -8 105.5 -49.5t39.5 -106.5q2 -82 -54 -132t-145 -50q-45 0 -90 13t-75 36l34 88q25 -20 58 -30.5t63 -10.5q49 0 80 28.5t29 67.5q0 35 -28 60.5t-75 25.5q-39 0 -67 -6l67 164q-143 10 -252.5 82t-171 191.5t-61.5 269.5
q0 160 69.5 283.5t193.5 192t280 68.5q125 0 229.5 -42t177.5 -117l-88 -113q-131 125 -321 125q-111 0 -198 -50t-136 -140.5t-49 -206.5q0 -117 49 -207t136 -141.5t198 -51.5q106 0 191 36t143 104l92 -99q-68 -80 -164 -128z" />
    <glyph glyph-name="egrave" unicode="&#xe8;" horiz-adv-x="1204" 
d="M1008 920.5q129 -162.5 116 -443.5h-880q20 -158 126.5 -251t264.5 -93q100 0 185 35t149 100l88 -94q-78 -86 -189.5 -133t-244.5 -47q-158 0 -280 68.5t-189.5 192.5t-67.5 284t68.5 283.5t191.5 192t279 68.5q254 0 383 -162.5zM875.5 855q-97.5 91 -254.5 91
q-154 0 -256.5 -92t-120.5 -246h737q-8 156 -105.5 247zM559 1257l-256 203l164 76l246 -279h-154z" />
    <glyph glyph-name="eacute" unicode="&#xe9;" horiz-adv-x="1204" 
d="M1008 920.5q129 -162.5 116 -443.5h-880q20 -158 126.5 -251t264.5 -93q100 0 185 35t149 100l88 -94q-78 -86 -189.5 -133t-244.5 -47q-158 0 -280 68.5t-189.5 192.5t-67.5 284t68.5 283.5t191.5 192t279 68.5q254 0 383 -162.5zM875.5 855q-97.5 91 -254.5 91
q-154 0 -256.5 -92t-120.5 -246h737q-8 156 -105.5 247zM653 1257h-153l245 279l162 -78z" />
    <glyph glyph-name="ecircumflex" unicode="&#xea;" horiz-adv-x="1204" 
d="M1008 920.5q129 -162.5 116 -443.5h-880q20 -158 126.5 -251t264.5 -93q100 0 185 35t149 100l88 -94q-78 -86 -189.5 -133t-244.5 -47q-158 0 -280 68.5t-189.5 192.5t-67.5 284t68.5 283.5t191.5 192t279 68.5q254 0 383 -162.5zM875.5 855q-97.5 91 -254.5 91
q-154 0 -256.5 -92t-120.5 -246h737q-8 156 -105.5 247zM756 1262l-148 184l-147 -184h-139l209 266h155l209 -266h-139z" />
    <glyph glyph-name="edieresis" unicode="&#xeb;" horiz-adv-x="1204" 
d="M368.5 1325q-28.5 31 -28.5 76t28.5 74.5t69.5 29.5t70 -29.5t29 -74.5t-29 -76t-70 -31t-69.5 31zM708.5 1325q-28.5 31 -28.5 76t28.5 74.5t69.5 29.5t70 -29.5t29 -74.5t-29 -76t-70 -31t-69.5 31zM1008 920.5q129 -162.5 116 -443.5h-880q20 -158 126.5 -251
t264.5 -93q100 0 185 35t149 100l88 -94q-78 -86 -189.5 -133t-244.5 -47q-158 0 -280 68.5t-189.5 192.5t-67.5 284t68.5 283.5t191.5 192t279 68.5q254 0 383 -162.5zM875.5 855q-97.5 91 -254.5 91q-154 0 -256.5 -92t-120.5 -246h737q-8 156 -105.5 247z" />
    <glyph glyph-name="igrave" unicode="&#xec;" horiz-adv-x="546" 
d="M195 0v1079h157v-1079h-157zM223 1257l-256 203l164 76l246 -279h-154z" />
    <glyph glyph-name="iacute" unicode="&#xed;" horiz-adv-x="546" 
d="M195 0v1079h157v-1079h-157zM317 1257h-153l245 279l162 -78z" />
    <glyph glyph-name="icircumflex" unicode="&#xee;" horiz-adv-x="546" 
d="M195 0v1079h157v-1079h-157zM420 1262l-148 184l-147 -184h-139l209 266h155l209 -266h-139z" />
    <glyph glyph-name="idieresis" unicode="&#xef;" horiz-adv-x="546" 
d="M172 1475.5q29 -29.5 29 -74.5t-29 -76t-70 -31t-69.5 31t-28.5 76t28.5 74.5t69.5 29.5t70 -29.5zM512 1475.5q29 -29.5 29 -74.5t-29 -76t-70 -31t-69.5 31t-28.5 76t28.5 74.5t69.5 29.5t70 -29.5zM195 0v1079h157v-1079h-157z" />
    <glyph glyph-name="eth" unicode="&#xf0;" horiz-adv-x="1189" 
d="M1018 901.5q88 -190.5 88 -385.5q0 -158 -64.5 -276.5t-184.5 -183t-279 -64.5q-145 0 -255 57t-169.5 163.5t-59.5 246.5q0 203 126 323.5t339 120.5q127 0 231.5 -53t153.5 -143q-39 129 -123 258t-203 239l-299 -96l-26 92l239 78q-127 100 -253 164l104 84
q168 -84 301 -199l258 84l29 -94l-203 -66q162 -159 250 -349.5zM843 228q95 85 95 229q0 145 -95 233t-253 88q-156 0 -249 -84t-93 -225q0 -150 93 -238t249 -88q158 0 253 85z" />
    <glyph glyph-name="ntilde" unicode="&#xf1;" horiz-adv-x="1343" 
d="M1073.5 973.5q108.5 -111.5 108.5 -307.5v-666h-160v623q0 143 -81 223t-224 80q-158 -2 -253 -96.5t-110 -249.5v-580h-159v1079h159v-237q111 240 418 243q193 0 301.5 -111.5zM633 1507.5q33 -18.5 74 -51.5q37 -29 58.5 -41t43.5 -12q88 0 88 106h107
q0 -113 -43 -172t-127 -59q-43 0 -77 18.5t-75 53.5q-33 27 -53.5 39t-42.5 12q-88 0 -88 -107h-107q0 113 43 172.5t127 59.5q39 0 72 -18.5z" />
    <glyph glyph-name="ograve" unicode="&#xf2;" horiz-adv-x="1265" 
d="M915.5 1014.5q124.5 -68.5 194.5 -192.5t70 -281q0 -160 -70 -284t-194.5 -193.5t-282.5 -69.5t-283 69.5t-194.5 193.5t-69.5 284q0 158 69.5 281.5t194.5 192t283 68.5t282.5 -68.5zM433 887q-89 -51 -138 -141.5t-49 -206.5q0 -117 49 -208t138 -142.5t200 -51.5
t200 51.5t138 142.5t49 208t-49 207t-138.5 141t-199.5 51q-111 0 -200 -51zM581 1257l-256 203l164 76l246 -279h-154z" />
    <glyph glyph-name="oacute" unicode="&#xf3;" horiz-adv-x="1265" 
d="M915.5 1014.5q124.5 -68.5 194.5 -192.5t70 -281q0 -160 -70 -284t-194.5 -193.5t-282.5 -69.5t-283 69.5t-194.5 193.5t-69.5 284q0 158 69.5 281.5t194.5 192t283 68.5t282.5 -68.5zM433 887q-89 -51 -138 -141.5t-49 -206.5q0 -117 49 -208t138 -142.5t200 -51.5
t200 51.5t138 142.5t49 208t-49 207t-138.5 141t-199.5 51q-111 0 -200 -51zM678 1257h-153l245 279l162 -78z" />
    <glyph glyph-name="ocircumflex" unicode="&#xf4;" horiz-adv-x="1265" 
d="M915.5 1014.5q124.5 -68.5 194.5 -192.5t70 -281q0 -160 -70 -284t-194.5 -193.5t-282.5 -69.5t-283 69.5t-194.5 193.5t-69.5 284q0 158 69.5 281.5t194.5 192t283 68.5t282.5 -68.5zM433 887q-89 -51 -138 -141.5t-49 -206.5q0 -117 49 -208t138 -142.5t200 -51.5
t200 51.5t138 142.5t49 208t-49 207t-138.5 141t-199.5 51q-111 0 -200 -51zM780 1262l-148 184l-147 -184h-139l209 266h155l209 -266h-139z" />
    <glyph glyph-name="otilde" unicode="&#xf5;" horiz-adv-x="1265" 
d="M915.5 1014.5q124.5 -68.5 194.5 -192.5t70 -281q0 -160 -70 -284t-194.5 -193.5t-282.5 -69.5t-283 69.5t-194.5 193.5t-69.5 284q0 158 69.5 281.5t194.5 192t283 68.5t282.5 -68.5zM433 887q-89 -51 -138 -141.5t-49 -206.5q0 -117 49 -208t138 -142.5t200 -51.5
t200 51.5t138 142.5t49 208t-49 207t-138.5 141t-199.5 51q-111 0 -200 -51zM569 1507.5q33 -18.5 74 -51.5q37 -29 58.5 -41t43.5 -12q88 0 88 106h107q0 -113 -43 -172t-127 -59q-43 0 -77 18.5t-75 53.5q-33 27 -53.5 39t-42.5 12q-88 0 -88 -107h-107q0 113 43 172.5
t127 59.5q39 0 72 -18.5z" />
    <glyph glyph-name="odieresis" unicode="&#xf6;" horiz-adv-x="1265" 
d="M532.5 1475.5q28.5 -29.5 28.5 -74.5t-28.5 -76t-69.5 -31t-69.5 31t-28.5 76t28.5 74.5t69.5 29.5t69.5 -29.5zM872.5 1475.5q28.5 -29.5 28.5 -74.5t-28.5 -76t-69.5 -31t-69.5 31t-28.5 76t28.5 74.5t69.5 29.5t69.5 -29.5zM915.5 1014.5q124.5 -68.5 194.5 -192.5
t70 -281q0 -160 -70 -284t-194.5 -193.5t-282.5 -69.5t-283 69.5t-194.5 193.5t-69.5 284q0 158 69.5 281.5t194.5 192t283 68.5t282.5 -68.5zM433 887q-89 -51 -138 -141.5t-49 -206.5q0 -117 49 -208t138 -142.5t200 -51.5t200 51.5t138 142.5t49 208t-49 207t-138.5 141
t-199.5 51q-111 0 -200 -51z" />
    <glyph glyph-name="divide" unicode="&#xf7;" horiz-adv-x="1005" 
d="M569.5 1113q28.5 -30 28.5 -75t-28.5 -75.5t-69.5 -30.5t-70 30.5t-29 75.5t29 75t70 30t69.5 -30zM76 602v119h854v-119h-854zM569.5 389q28.5 -31 28.5 -76t-28.5 -74.5t-69.5 -29.5t-70 29.5t-29 74.5t29 76t70 31t69.5 -31z" />
    <glyph glyph-name="oslash" unicode="&#xf8;" horiz-adv-x="1265" 
d="M1087.5 860q92.5 -135 92.5 -319q0 -160 -70 -284t-194.5 -193.5t-282.5 -69.5q-66 0 -131 12l-99 -309h-81l106 332q-158 55 -250 191t-92 321q0 158 69.5 281.5t194.5 192t283 68.5q68 0 131 -12l90 283h80l-96 -303q157 -56 249.5 -191zM300 303q62 -100 169 -145
l252 784q-35 8 -88 8q-115 0 -205 -52t-140 -145.5t-50 -213.5q0 -136 62 -236zM838 177q90 52 140 146.5t50 215.5q0 135 -62.5 235t-170.5 146l-252 -787q39 -8 90 -8q115 0 205 52z" />
    <glyph glyph-name="ugrave" unicode="&#xf9;" horiz-adv-x="1325" 
d="M1130 0h-159v244q-104 -246 -410 -250q-188 0 -295.5 112.5t-107.5 307.5v665h159v-622q0 -143 80 -223t219 -80q166 2 260.5 111.5t94.5 283.5v530h159v-1079zM606 1257l-256 203l164 76l246 -279h-154z" />
    <glyph glyph-name="uacute" unicode="&#xfa;" horiz-adv-x="1325" 
d="M1130 0h-159v244q-104 -246 -410 -250q-188 0 -295.5 112.5t-107.5 307.5v665h159v-622q0 -143 80 -223t219 -80q166 2 260.5 111.5t94.5 283.5v530h159v-1079zM700 1257h-153l245 279l162 -78z" />
    <glyph glyph-name="ucircumflex" unicode="&#xfb;" horiz-adv-x="1325" 
d="M1130 0h-159v244q-104 -246 -410 -250q-188 0 -295.5 112.5t-107.5 307.5v665h159v-622q0 -143 80 -223t219 -80q166 2 260.5 111.5t94.5 283.5v530h159v-1079zM803 1262l-148 184l-147 -184h-139l209 266h155l209 -266h-139z" />
    <glyph glyph-name="udieresis" unicode="&#xfc;" horiz-adv-x="1325" 
d="M415.5 1325q-28.5 31 -28.5 76t28.5 74.5t69.5 29.5t70 -29.5t29 -74.5t-29 -76t-70 -31t-69.5 31zM755.5 1325q-28.5 31 -28.5 76t28.5 74.5t69.5 29.5t70 -29.5t29 -74.5t-29 -76t-70 -31t-69.5 31zM1130 0h-159v244q-104 -246 -410 -250q-188 0 -295.5 112.5
t-107.5 307.5v665h159v-622q0 -143 80 -223t219 -80q166 2 260.5 111.5t94.5 283.5v530h159v-1079z" />
    <glyph glyph-name="yacute" unicode="&#xfd;" horiz-adv-x="1028" 
d="M405.5 -342.5q-81.5 -63.5 -190.5 -63.5q-129 0 -227 80l67 133q72 -51 152 -51q63 0 113.5 39t82.5 113l46 100l-447 1071h168l358 -891l342 891h164l-495 -1233q-52 -125 -133.5 -188.5zM563 1257h-153l245 279l162 -78z" />
    <glyph glyph-name="thorn" unicode="&#xfe;" horiz-adv-x="1384" 
d="M1049.5 1015.5q117.5 -69.5 183 -194.5t65.5 -284q0 -158 -64.5 -282t-181 -192.5t-268.5 -68.5q-143 0 -250.5 62.5t-168.5 174.5v-628h-160v1917h160v-674q59 115 166.5 177t248.5 62q152 0 269.5 -69.5zM950 190.5q88 51.5 137.5 143.5t49.5 207t-49.5 206t-137.5 143
t-198 52q-113 0 -201 -51t-137 -143.5t-49 -206.5q0 -117 49 -208t137 -142.5t201 -51.5q110 0 198 51.5z" />
    <glyph glyph-name="ydieresis" unicode="&#xff;" horiz-adv-x="1028" 
d="M420 1475.5q29 -29.5 29 -74.5t-29 -76t-70 -31t-69.5 31t-28.5 76t28.5 74.5t69.5 29.5t70 -29.5zM759.5 1475.5q28.5 -29.5 28.5 -74.5t-28.5 -76t-69.5 -31t-69.5 31t-28.5 76t28.5 74.5t69.5 29.5t69.5 -29.5zM405.5 -342.5q-81.5 -63.5 -190.5 -63.5q-129 0 -227 80
l67 133q72 -51 152 -51q63 0 113.5 39t82.5 113l46 100l-447 1071h168l358 -891l342 891h164l-495 -1233q-52 -125 -133.5 -188.5z" />
    <glyph glyph-name="Amacron" unicode="&#x100;" horiz-adv-x="1470" 
d="M342 362l-160 -362h-174l643 1434h170l641 -1434h-178l-160 362h-782zM731 1247l-319 -727h643zM490 1677v127h493v-127h-493z" />
    <glyph glyph-name="amacron" unicode="&#x101;" horiz-adv-x="1181" 
d="M864 166q-129 -174 -395 -174q-109 0 -192.5 43t-129 118.5t-45.5 168.5q0 141 106.5 224t297.5 85h354v63q0 121 -73.5 186.5t-215.5 65.5q-164 0 -342 -123l-67 117q115 76 212 110.5t228 34.5q199 0 306.5 -98t109.5 -274l2 -713h-156v166zM734 195.5
q97 64.5 128 177.5v129h-336q-274 0 -274 -174q0 -90 67.5 -143.5t180.5 -53.5q137 0 234 64.5zM336 1323v127h493v-127h-493z" />
    <glyph glyph-name="Abreve" unicode="&#x102;" horiz-adv-x="1470" 
d="M342 362l-160 -362h-174l643 1434h170l641 -1434h-178l-160 362h-782zM731 1247l-319 -727h643zM917.5 1679q-73.5 -74 -182.5 -74t-182.5 74t-77.5 191h113q4 -63 45 -105.5t102 -42.5t102.5 42t45.5 106h112q-4 -117 -77.5 -191z" />
    <glyph glyph-name="abreve" unicode="&#x103;" horiz-adv-x="1181" 
d="M864 166q-129 -174 -395 -174q-109 0 -192.5 43t-129 118.5t-45.5 168.5q0 141 106.5 224t297.5 85h354v63q0 121 -73.5 186.5t-215.5 65.5q-164 0 -342 -123l-67 117q115 76 212 110.5t228 34.5q199 0 306.5 -98t109.5 -274l2 -713h-156v166zM734 195.5
q97 64.5 128 177.5v129h-336q-274 0 -274 -174q0 -90 67.5 -143.5t180.5 -53.5q137 0 234 64.5zM763.5 1325q-73.5 -74 -182.5 -74t-182.5 74t-77.5 191h113q4 -63 45 -105.5t102 -42.5t102.5 42t45.5 106h112q-4 -117 -77.5 -191z" />
    <glyph glyph-name="Aogonek" unicode="&#x104;" horiz-adv-x="1470" 
d="M1419 0q-109 -150 -108 -233q0 -37 20.5 -57.5t52.5 -20.5q51 0 109 67l51 -61q-31 -47 -78 -76t-98 -29q-63 0 -107 40t-44 112q0 51 27.5 112.5t84.5 145.5h-43l-164 362h-778l-162 -362h-172l641 1434h170l641 -1434h-43zM1063 518l-330 731l-330 -731h660z" />
    <glyph glyph-name="aogonek" unicode="&#x105;" horiz-adv-x="1189" 
d="M911.5 986q108.5 -99 110.5 -273v-713h-43q-133 -147 -133 -233q0 -37 20.5 -57.5t51.5 -20.5q49 0 110 67l51 -61q-35 -49 -81 -77t-97 -28q-63 0 -106 39t-43 113q0 55 33.5 118.5t107.5 143.5h-29v160q-63 -86 -164.5 -129t-224.5 -43q-113 0 -197.5 43t-130 117.5
t-45.5 166.5q0 143 106.5 226.5t297.5 85.5h358v63q-2 121 -75.5 186.5t-215.5 65.5q-166 0 -344 -123l-67 117q115 76 213 110.5t231 34.5q197 0 305.5 -99zM320.5 459q-68.5 -43 -68.5 -133q0 -86 66.5 -140.5t187.5 -54.5q127 0 229.5 65.5t128.5 170.5v135h-336
q-139 0 -207.5 -43z" />
    <glyph glyph-name="Cacute" unicode="&#x106;" horiz-adv-x="1433" 
d="M1112 1382.5q137 -55.5 242 -153.5l-99 -125q-84 84 -195.5 132t-228.5 48q-160 0 -294 -75.5t-211.5 -205t-77.5 -284.5q0 -154 77.5 -284t212 -205.5t293.5 -75.5q117 0 227.5 45t196.5 127l101 -113q-109 -102 -248 -161.5t-285 -59.5q-203 0 -372.5 97t-269 264
t-99.5 366q0 197 100.5 361.5t271.5 261t375 96.5q146 0 283 -55.5zM790 1611h-153l245 279l162 -78z" />
    <glyph glyph-name="cacute" unicode="&#x107;" horiz-adv-x="1148" 
d="M858.5 1041q104.5 -42 177.5 -117l-88 -113q-131 125 -321 125q-111 0 -198 -50t-136 -140.5t-49 -206.5q0 -117 49 -207t136 -141.5t198 -51.5q106 0 191 36t143 104l92 -99q-74 -88 -184.5 -137t-247.5 -49q-156 0 -277 68.5t-189.5 192.5t-68.5 284t69.5 283.5
t193.5 192t280 68.5q125 0 229.5 -42zM626 1257h-153l245 279l162 -78z" />
    <glyph glyph-name="Ccaron" unicode="&#x10c;" horiz-adv-x="1433" 
d="M1112 1382.5q137 -55.5 242 -153.5l-99 -125q-84 84 -195.5 132t-228.5 48q-160 0 -294 -75.5t-211.5 -205t-77.5 -284.5q0 -154 77.5 -284t212 -205.5t293.5 -75.5q117 0 227.5 45t196.5 127l101 -113q-109 -102 -248 -161.5t-285 -59.5q-203 0 -372.5 97t-269 264
t-99.5 366q0 197 100.5 361.5t271.5 261t375 96.5q146 0 283 -55.5zM596 1882l147 -193l148 193h149l-213 -281h-168l-213 281h150z" />
    <glyph glyph-name="ccaron" unicode="&#x10d;" horiz-adv-x="1148" 
d="M858.5 1041q104.5 -42 177.5 -117l-88 -113q-131 125 -321 125q-111 0 -198 -50t-136 -140.5t-49 -206.5q0 -117 49 -207t136 -141.5t198 -51.5q106 0 191 36t143 104l92 -99q-74 -88 -184.5 -137t-247.5 -49q-156 0 -277 68.5t-189.5 192.5t-68.5 284t69.5 283.5
t193.5 192t280 68.5q125 0 229.5 -42zM432 1528l147 -193l148 193h149l-213 -281h-168l-213 281h150z" />
    <glyph glyph-name="Dcaron" unicode="&#x10e;" horiz-adv-x="1615" 
d="M1171.5 1339.5q167.5 -94.5 265 -258t97.5 -364.5t-97.5 -365t-267.5 -258t-378 -94h-574v1434h580q207 0 374.5 -94.5zM381 156h418q158 0 288 72.5t205.5 200.5t75.5 286t-77 285.5t-208 201.5t-290 74h-412v-1120zM612 1882l147 -193l148 193h149l-213 -281h-168
l-213 281h150z" />
    <glyph glyph-name="dcaron" unicode="&#x10f;" horiz-adv-x="1429" 
d="M1186 1520v-1520h-160v231q-61 -115 -168.5 -177t-251.5 -62q-152 0 -270.5 69.5t-184 194.5t-65.5 285t65.5 283.5t183.5 193t269 69.5q143 0 253 -62t169 -179v674h160zM1490 1382.5q28 -28.5 28 -73.5q0 -41 -29 -88l-96 -150h-90l67 150q-47 29 -47 88
q0 45 28.5 73.5t69.5 28.5t69 -28.5zM838 186.5q88 51.5 138 143.5t50 207q0 117 -50 209t-138 144t-201 52t-202 -52t-139 -144.5t-50 -208.5q0 -115 50 -207t139 -143.5t202 -51.5t201 51.5z" />
    <glyph glyph-name="Dcroat" unicode="&#x110;" horiz-adv-x="1615" 
d="M1171.5 1339.5q167.5 -94.5 265 -258t97.5 -364.5t-97.5 -365t-267.5 -258t-378 -94h-574v1434h580q207 0 374.5 -94.5zM381 156h418q158 0 288 72.5t205.5 200.5t75.5 286t-77 285.5t-208 201.5t-290 74h-412v-1120zM519 1677v127h493v-127h-493z" />
    <glyph glyph-name="dcroat" unicode="&#x111;" horiz-adv-x="1380" 
d="M1186 1290v-1290h-160v231q-61 -115 -168.5 -177t-251.5 -62q-152 0 -270.5 69.5t-184 194.5t-65.5 285t65.5 283.5t183.5 193t269 69.5q143 0 253 -62t169 -179v444h-221v103h221v127h160v-127h145v-103h-145zM838 186.5q88 51.5 138 143.5t50 207q0 117 -50 209
t-138 144t-201 52t-202 -52t-139 -144.5t-50 -208.5q0 -115 50 -207t139 -143.5t202 -51.5t201 51.5z" />
    <glyph glyph-name="Emacron" unicode="&#x112;" horiz-adv-x="1333" 
d="M381 1276v-471h723v-158h-723v-491h836v-156h-1000v1434h973v-158h-809zM465 1677v127h493v-127h-493z" />
    <glyph glyph-name="emacron" unicode="&#x113;" horiz-adv-x="1204" 
d="M1008 920.5q129 -162.5 116 -443.5h-880q20 -158 126.5 -251t264.5 -93q100 0 185 35t149 100l88 -94q-78 -86 -189.5 -133t-244.5 -47q-158 0 -280 68.5t-189.5 192.5t-67.5 284t68.5 283.5t191.5 192t279 68.5q254 0 383 -162.5zM875.5 855q-97.5 91 -254.5 91
q-154 0 -256.5 -92t-120.5 -246h737q-8 156 -105.5 247zM363 1323v127h493v-127h-493z" />
    <glyph glyph-name="Edotaccent" unicode="&#x116;" horiz-adv-x="1333" 
d="M381 1276v-471h723v-158h-723v-491h836v-156h-1000v1434h973v-158h-809zM785 1821.5q30 -31.5 30 -78.5t-30 -79t-75 -32t-74.5 31.5t-29.5 79.5q0 47 29.5 78.5t74.5 31.5t75 -31.5z" />
    <glyph glyph-name="edotaccent" unicode="&#x117;" horiz-adv-x="1204" 
d="M1008 920.5q129 -162.5 116 -443.5h-880q20 -158 126.5 -251t264.5 -93q100 0 185 35t149 100l88 -94q-78 -86 -189.5 -133t-244.5 -47q-158 0 -280 68.5t-189.5 192.5t-67.5 284t68.5 283.5t191.5 192t279 68.5q254 0 383 -162.5zM875.5 855q-97.5 91 -254.5 91
q-154 0 -256.5 -92t-120.5 -246h737q-8 156 -105.5 247zM683 1467.5q30 -31.5 30 -78.5t-30 -79t-75 -32t-74.5 31.5t-29.5 79.5q0 47 29.5 78.5t74.5 31.5t75 -31.5z" />
    <glyph glyph-name="Eogonek" unicode="&#x118;" horiz-adv-x="1345" 
d="M381 1288v-485h735v-144h-735v-516h848v-143h-129q-61 -82 -86 -137.5t-25 -95.5q0 -37 21.5 -57.5t52.5 -20.5q51 0 108 67l54 -61q-33 -47 -80 -76t-98 -29q-63 0 -106.5 39t-43.5 113q0 53 26.5 113.5t86.5 144.5h-793v1434h985v-146h-821z" />
    <glyph glyph-name="eogonek" unicode="&#x119;" horiz-adv-x="1204" 
d="M716 1083q54 0 -83 0q162 0 275.5 -74.5t169 -210.5t46.5 -321h-878q16 -156 121.5 -251t267.5 -95q98 0 184 36t150 101l88 -94q-207 -256 -207 -405q0 -39 19.5 -59.5t52.5 -20.5q53 0 108 67l51 -61q-33 -47 -79 -76t-97 -29q-61 0 -105 39t-44 115q0 143 139 330
q-125 -80 -277 -80q-154 0 -275.5 69.5t-189 194.5t-67.5 285q0 94 56.5 180t152.5 188q47 51 68.5 79t21.5 46q0 4 -2 15.5t47 17.5t162 12q70 2 124 2zM361.5 852q-105.5 -94 -117.5 -244h737q-8 152 -105.5 245t-252.5 93q-156 0 -261.5 -94z" />
    <glyph glyph-name="Ecaron" unicode="&#x11a;" horiz-adv-x="1333" 
d="M381 1276v-471h723v-158h-723v-491h836v-156h-1000v1434h973v-158h-809zM559 1882l147 -193l148 193h149l-213 -281h-168l-213 281h150z" />
    <glyph glyph-name="ecaron" unicode="&#x11b;" horiz-adv-x="1204" 
d="M1008 920.5q129 -162.5 116 -443.5h-880q20 -158 126.5 -251t264.5 -93q100 0 185 35t149 100l88 -94q-78 -86 -189.5 -133t-244.5 -47q-158 0 -280 68.5t-189.5 192.5t-67.5 284t68.5 283.5t191.5 192t279 68.5q254 0 383 -162.5zM875.5 855q-97.5 91 -254.5 91
q-154 0 -256.5 -92t-120.5 -246h737q-8 156 -105.5 247zM457 1528l147 -193l148 193h149l-213 -281h-168l-213 281h150z" />
    <glyph glyph-name="Gbreve" unicode="&#x11e;" horiz-adv-x="1542" 
d="M1362 700v-520q-109 -86 -250 -137t-283 -51q-205 0 -375.5 97t-271 263t-100.5 365t100.5 363.5t274.5 261t381 96.5q147 0 285.5 -52.5t242.5 -144.5l-94 -123q-88 78 -202 122t-232 44q-162 0 -297 -75.5t-214 -206t-79 -285.5q0 -156 80 -287t215 -207t297 -76
q96 0 194.5 32t182.5 89v432h145zM968.5 1679q-73.5 -74 -182.5 -74t-182.5 74t-77.5 191h113q4 -63 45 -105.5t102 -42.5t102.5 42t45.5 106h112q-4 -117 -77.5 -191z" />
    <glyph glyph-name="gbreve" unicode="&#x11f;" horiz-adv-x="1302" 
d="M1135 113q0 -156 -68 -272.5t-190.5 -179t-284.5 -62.5q-240 2 -442 155l73 123q82 -68 170 -101.5t193 -35.5q176 0 282.5 100.5t106.5 268.5v163q-57 -109 -159.5 -167t-237.5 -58q-143 0 -255 66.5t-174.5 185.5t-62.5 270q0 150 61.5 266.5t172 183t253.5 66.5
q137 0 239.5 -58t162.5 -167v219h160v-966zM797 231.5q84 49.5 131 136.5t47 195q0 111 -47 198t-131 136t-191 49q-106 0 -190 -49t-132 -136t-48 -198q0 -109 48 -195.5t132 -136t190 -49.5q107 0 191 49.5zM833.5 1325q-73.5 -74 -182.5 -74t-182.5 74t-77.5 191h113
q4 -63 45 -105.5t102 -42.5t102.5 42t45.5 106h112q-4 -117 -77.5 -191z" />
    <glyph glyph-name="Gcommaaccent" unicode="&#x122;" horiz-adv-x="1542" 
d="M1362 700v-520q-109 -86 -250 -137t-283 -51q-205 0 -375.5 97t-271 263t-100.5 365t100.5 363.5t274.5 261t381 96.5q147 0 285.5 -52.5t242.5 -144.5l-94 -123q-88 78 -202 122t-232 44q-162 0 -297 -75.5t-214 -206t-79 -285.5q0 -156 80 -287t215 -207t297 -76
q96 0 194.5 32t182.5 89v432h145zM866.5 -140.5q28.5 -27.5 28.5 -74.5q0 -43 -31 -90l-96 -148h-90l68 150q-45 27 -45 88q0 45 27.5 73.5t68.5 28.5t69.5 -27.5z" />
    <glyph glyph-name="gcommaaccent" unicode="&#x123;" horiz-adv-x="1302" 
d="M1135 113q0 -156 -68 -272.5t-190.5 -179t-284.5 -62.5q-240 2 -442 155l73 123q82 -68 170 -101.5t193 -35.5q176 0 282.5 100.5t106.5 268.5v163q-57 -109 -159.5 -167t-237.5 -58q-143 0 -255 66.5t-174.5 185.5t-62.5 270q0 150 61.5 266.5t172 183t253.5 66.5
q137 0 239.5 -58t162.5 -167v219h160v-966zM797 231.5q84 49.5 131 136.5t47 195q0 111 -47 198t-131 136t-191 49q-106 0 -190 -49t-132 -136t-48 -198q0 -109 48 -195.5t132 -136t190 -49.5q107 0 191 49.5zM571.5 1219.5q-28.5 27.5 -28.5 74.5q0 43 31 90l96 148h90
l-68 -150q45 -27 45 -88q0 -45 -27.5 -73.5t-68.5 -28.5t-69.5 27.5z" />
    <glyph glyph-name="hbar" unicode="&#x127;" horiz-adv-x="1531" 
d="M1085.5 973.5q108.5 -111.5 108.5 -307.5v-666h-160v623q0 143 -81 223t-224 80q-170 -2 -267 -110.5t-97 -285.5v-530h-160v1225h-178v106h178v189h160v-189h319v-106h-319v-387q106 244 419 247q193 0 301.5 -111.5z" />
    <glyph glyph-name="Itilde" unicode="&#x128;" horiz-adv-x="598" 
d="M217 0v1434h164v-1434h-164zM236 1861.5q33 -18.5 74 -51.5q37 -29 58.5 -41t43.5 -12q88 0 88 106h107q0 -113 -43 -172t-127 -59q-43 0 -77 18.5t-75 53.5q-33 27 -53.5 39t-42.5 12q-88 0 -88 -107h-107q0 113 43 172.5t127 59.5q39 0 72 -18.5z" />
    <glyph glyph-name="itilde" unicode="&#x129;" horiz-adv-x="546" 
d="M195 0v1079h157v-1079h-157zM209 1507.5q33 -18.5 74 -51.5q37 -29 58.5 -41t43.5 -12q88 0 88 106h107q0 -113 -43 -172t-127 -59q-43 0 -77 18.5t-75 53.5q-33 27 -53.5 39t-42.5 12q-88 0 -88 -107h-107q0 113 43 172.5t127 59.5q39 0 72 -18.5z" />
    <glyph glyph-name="Imacron" unicode="&#x12a;" horiz-adv-x="598" 
d="M217 0v1434h164v-1434h-164zM54 1677v127h493v-127h-493z" />
    <glyph glyph-name="imacron" unicode="&#x12b;" horiz-adv-x="546" 
d="M195 0v1079h157v-1079h-157zM27 1323v127h493v-127h-493z" />
    <glyph glyph-name="Iogonek" unicode="&#x12e;" horiz-adv-x="598" 
d="M395 -382q-47 -28 -98 -28q-61 0 -105.5 40t-44.5 112q0 53 29 115.5t86 144.5h-45v1432h164v-1434h-31q-109 -147 -108 -233q0 -37 20.5 -57.5t50.5 -20.5q53 0 111 67l51 -61q-33 -49 -80 -77z" />
    <glyph glyph-name="iogonek" unicode="&#x12f;" horiz-adv-x="518" 
d="M335 1468.5q30 -32.5 30 -79.5q0 -49 -30 -81t-75 -32q-43 0 -73.5 31.5t-30.5 81.5q0 47 30.5 79.5t73.5 32.5q45 0 75 -32.5zM311 0q-102 -145 -102 -233q0 -37 19.5 -57.5t52.5 -20.5q51 0 108 67l53 -61q-33 -47 -80 -76t-98 -29q-63 0 -106 39t-43 113
q0 51 25.5 112.5t80.5 145.5h-39v1079h160v-1079h-31z" />
    <glyph glyph-name="Idotaccent" unicode="&#x130;" horiz-adv-x="598" 
d="M217 0v1434h164v-1434h-164zM374 1821.5q30 -31.5 30 -78.5t-30 -79t-75 -32t-74.5 31.5t-29.5 79.5q0 47 29.5 78.5t74.5 31.5t75 -31.5z" />
    <glyph glyph-name="dotlessi" unicode="&#x131;" horiz-adv-x="546" 
d="M195 0v1079h157v-1079h-157z" />
    <glyph glyph-name="IJ" unicode="&#x132;" horiz-adv-x="1587" 
d="M217 0v1434h164v-1434h-164zM1296.5 106.5q-108.5 -114.5 -301.5 -114.5q-119 0 -220 53t-177 152l82 131q68 -80 148.5 -123t164.5 -43q119 0 182.5 69.5t63.5 202.5v842h-512v158h678v-1004q0 -209 -108.5 -323.5z" />
    <glyph glyph-name="ij" unicode="&#x133;" horiz-adv-x="1093" 
d="M893 1468.5q31 -32.5 31 -79.5t-31 -80t-78 -33q-45 0 -76.5 32.5t-31.5 80.5q0 47 31.5 79.5t76.5 32.5q47 0 78 -32.5zM347 1467.5q30 -31.5 30 -78.5t-30 -79t-75 -32t-74.5 31.5t-29.5 79.5q0 47 29.5 78.5t74.5 31.5t75 -31.5zM195 0v1079h157v-1079h-157zM809 -310
q-86 -93 -219 -93q-121 0 -223 73l57 131q76 -55 156 -55q74 0 114.5 48t40.5 145v1140h160v-1120q0 -176 -86 -269z" />
    <glyph glyph-name="Jcircumflex" unicode="&#x134;" horiz-adv-x="989" 
d="M698.5 106.5q-108.5 -114.5 -301.5 -114.5q-119 0 -220 53t-177 152l82 131q68 -80 148.5 -123t164.5 -43q119 0 182.5 69.5t63.5 202.5v842h-512v158h678v-1004q0 -209 -108.5 -323.5zM608 1616l-148 184l-147 -184h-139l209 266h155l209 -266h-139z" />
    <glyph glyph-name="jcircumflex" unicode="&#x135;" horiz-adv-x="518" 
d="M272.5 -312q-75.5 -91 -215.5 -91q-131 0 -245 75l47 125q80 -57 168 -57q80 0 120.5 58.5t40.5 168.5v1112h160v-1132q0 -168 -75.5 -259zM410 1262l-148 184l-147 -184h-139l209 266h155l209 -266h-139z" />
    <glyph glyph-name="Kcommaaccent" unicode="&#x136;" horiz-adv-x="1431" 
d="M659 680l-278 -305v-375h-164v1434h164v-826l770 826h195l-568 -623l611 -811h-201zM788.5 -140.5q28.5 -27.5 28.5 -74.5q0 -43 -31 -90l-96 -148h-90l68 150q-45 27 -45 88q0 45 27.5 73.5t68.5 28.5t69.5 -27.5z" />
    <glyph glyph-name="kcedilla" unicode="&#x137;" horiz-adv-x="1173" 
d="M274 -94q63 -6 104.5 -51t41.5 -107q0 -82 -56.5 -132t-148.5 -50q-39 0 -84 13t-78 36l35 86q23 -16 54.5 -27.5t60.5 -11.5q51 0 83.5 28.5t32.5 76.5q0 43 -28.5 69.5t-73.5 26.5l-63 -2l63 139h-12v1520h160v-994l555 553h188l-403 -417l446 -662h-190l-369 545
l-227 -236v-309h-48z" />
    <glyph glyph-name="kgreenlandic" unicode="&#x138;" horiz-adv-x="1165" 
d="M352 307v-307h-157v1079h157v-557l559 557h189l-406 -417l449 -662h-191l-368 545z" />
    <glyph glyph-name="Lacute" unicode="&#x139;" horiz-adv-x="1058" 
d="M1010 156v-156h-793v1434h164v-1278h629zM354 1611h-153l245 279l162 -78z" />
    <glyph glyph-name="lacute" unicode="&#x13a;" horiz-adv-x="569" 
d="M205 0v1520h160v-1520h-160zM330 1697h-153l245 279l162 -78z" />
    <glyph glyph-name="Lcommaaccent" unicode="&#x13b;" horiz-adv-x="1058" 
d="M1010 156v-156h-793v1434h164v-1278h629zM671.5 -140.5q28.5 -27.5 28.5 -74.5q0 -43 -31 -90l-96 -148h-90l68 150q-45 27 -45 88q0 45 27.5 73.5t68.5 28.5t69.5 -27.5z" />
    <glyph glyph-name="lcommaaccent" unicode="&#x13c;" horiz-adv-x="569" 
d="M205 0v1520h160v-1520h-160zM364.5 -140.5q28.5 -27.5 28.5 -74.5q0 -43 -31 -90l-96 -148h-90l68 150q-45 27 -45 88q0 45 27.5 73.5t68.5 28.5t69.5 -27.5z" />
    <glyph glyph-name="Lcaron" unicode="&#x13d;" horiz-adv-x="1058" 
d="M1010 156v-156h-793v1434h164v-1278h629zM948.5 1339q28.5 -29 28.5 -76q0 -41 -31 -88l-96 -147h-90l68 149q-45 27 -45 86q0 45 27.5 75t68.5 30t69.5 -29z" />
    <glyph glyph-name="lcaron" unicode="&#x13e;" horiz-adv-x="587" 
d="M365 1520v-1520h-160v1520h160zM649.5 1382.5q28.5 -28.5 28.5 -73.5q0 -43 -31 -88l-96 -150h-90l67 150q-47 29 -47 88q0 45 29 73.5t70 28.5t69.5 -28.5z" />
    <glyph glyph-name="Ldot" unicode="&#x13f;" horiz-adv-x="1058" 
d="M1010 156v-156h-793v1434h164v-1278h629zM859.5 995.5q27.5 -28.5 27.5 -73.5t-27.5 -76t-68.5 -31t-69 30.5t-28 76.5q0 45 28 73.5t69 28.5t68.5 -28.5z" />
    <glyph glyph-name="ldot" unicode="&#x140;" horiz-adv-x="606" 
d="M205 0v1520h160v-1520h-160zM635 705.5q29 -29.5 29 -74.5t-29 -75t-70 -30t-69.5 30t-28.5 75t28.5 74.5t69.5 29.5t70 -29.5z" />
    <glyph glyph-name="Lslash" unicode="&#x141;" horiz-adv-x="1089" 
d="M1040 0h-792v805l-182 -53l-31 114l213 64v504h164v-457l344 102l30 -116l-374 -111l-2 -696h630v-156z" />
    <glyph glyph-name="lslash" unicode="&#x142;" horiz-adv-x="591" 
d="M393 0h-160v844l-231 -68l-29 115l260 78v551h160v-504l213 63l29 -116l-242 -72v-891z" />
    <glyph glyph-name="Nacute" unicode="&#x143;" horiz-adv-x="1628" 
d="M1241 0l-860 1151v-1151h-164v1434h170l860 -1153v1153h162v-1434h-168zM858 1611h-153l245 279l162 -78z" />
    <glyph glyph-name="nacute" unicode="&#x144;" horiz-adv-x="1343" 
d="M1073.5 973.5q108.5 -111.5 108.5 -307.5v-666h-160v623q0 143 -81 223t-224 80q-158 -2 -253 -96.5t-110 -249.5v-580h-159v1079h159v-237q111 240 418 243q193 0 301.5 -111.5zM741 1257h-153l245 279l162 -78z" />
    <glyph glyph-name="Ncommaaccent" unicode="&#x145;" horiz-adv-x="1628" 
d="M1241 0l-860 1151v-1151h-164v1434h170l860 -1153v1153h162v-1434h-168zM895.5 -140.5q28.5 -27.5 28.5 -74.5q0 -43 -31 -90l-96 -148h-90l68 150q-45 27 -45 88q0 45 27.5 73.5t68.5 28.5t69.5 -27.5z" />
    <glyph glyph-name="ncommaaccent" unicode="&#x146;" horiz-adv-x="1343" 
d="M1073.5 973.5q108.5 -111.5 108.5 -307.5v-666h-160v623q0 143 -81 223t-224 80q-158 -2 -253 -96.5t-110 -249.5v-580h-159v1079h159v-237q111 240 418 243q193 0 301.5 -111.5zM759.5 -140.5q28.5 -27.5 28.5 -74.5q0 -43 -31 -90l-96 -148h-90l68 150q-45 27 -45 88
q0 45 27.5 73.5t68.5 28.5t69.5 -27.5z" />
    <glyph glyph-name="Ncaron" unicode="&#x147;" horiz-adv-x="1628" 
d="M1241 0l-860 1151v-1151h-164v1434h170l860 -1153v1153h162v-1434h-168zM664 1882l147 -193l148 193h149l-213 -281h-168l-213 281h150z" />
    <glyph glyph-name="ncaron" unicode="&#x148;" horiz-adv-x="1343" 
d="M1073.5 973.5q108.5 -111.5 108.5 -307.5v-666h-160v623q0 143 -81 223t-224 80q-158 -2 -253 -96.5t-110 -249.5v-580h-159v1079h159v-237q111 240 418 243q193 0 301.5 -111.5zM547 1528l147 -193l148 193h149l-213 -281h-168l-213 281h150z" />
    <glyph glyph-name="Omacron" unicode="&#x14c;" horiz-adv-x="1665" 
d="M1210 1341.5q172 -96.5 272.5 -261.5t100.5 -363q0 -199 -100.5 -365t-272.5 -263t-376 -97q-207 0 -379 97t-272.5 263t-100.5 365t100.5 364.5t272.5 261t379 95.5q204 0 376 -96.5zM542 1206q-134 -76 -214 -205t-80 -284q0 -156 80 -286t214 -205.5t292 -75.5
t290.5 75.5t211.5 205.5t79 286t-79 284.5t-212 204.5t-290 76q-158 0 -292 -76zM580 1677v127h493v-127h-493z" />
    <glyph glyph-name="omacron" unicode="&#x14d;" horiz-adv-x="1265" 
d="M915.5 1014.5q124.5 -68.5 194.5 -192.5t70 -281q0 -160 -70 -284t-194.5 -193.5t-282.5 -69.5t-283 69.5t-194.5 193.5t-69.5 284q0 158 69.5 281.5t194.5 192t283 68.5t282.5 -68.5zM433 887q-89 -51 -138 -141.5t-49 -206.5q0 -117 49 -208t138 -142.5t200 -51.5
t200 51.5t138 142.5t49 208t-49 207t-138.5 141t-199.5 51q-111 0 -200 -51zM387 1323v127h493v-127h-493z" />
    <glyph glyph-name="Ohungarumlaut" unicode="&#x150;" horiz-adv-x="1665" 
d="M1210 1341.5q172 -96.5 272.5 -261.5t100.5 -363q0 -199 -100.5 -365t-272.5 -263t-376 -97q-207 0 -379 97t-272.5 263t-100.5 365t100.5 364.5t272.5 261t379 95.5q204 0 376 -96.5zM542 1206q-134 -76 -214 -205t-80 -284q0 -156 80 -286t214 -205.5t292 -75.5
t290.5 75.5t211.5 205.5t79 286t-79 284.5t-212 204.5t-290 76q-158 0 -292 -76zM698 1607h-133l186 289l136 -69zM999 1607h-133l187 289l135 -69z" />
    <glyph glyph-name="ohungarumlaut" unicode="&#x151;" horiz-adv-x="1265" 
d="M915.5 1014.5q124.5 -68.5 194.5 -192.5t70 -281q0 -160 -70 -284t-194.5 -193.5t-282.5 -69.5t-283 69.5t-194.5 193.5t-69.5 284q0 158 69.5 281.5t194.5 192t283 68.5t282.5 -68.5zM433 887q-89 -51 -138 -141.5t-49 -206.5q0 -117 49 -208t138 -142.5t200 -51.5
t200 51.5t138 142.5t49 208t-49 207t-138.5 141t-199.5 51q-111 0 -200 -51zM504 1253h-133l186 289l136 -69zM805 1253h-133l187 289l135 -69z" />
    <glyph glyph-name="OE" unicode="&#x152;" horiz-adv-x="2240" 
d="M2124 0h-1293q-205 0 -376.5 95t-272 260t-100.5 362t100.5 361.5t272.5 260t376 95.5h1266v-158h-811v-473h725v-156h-725v-489h838v-158zM1124 1276h-290q-160 0 -295.5 -75t-213 -203t-77.5 -283q0 -156 77.5 -284t213 -201.5t295.5 -73.5l290 -2v1122z" />
    <glyph glyph-name="oe" unicode="&#x153;" horiz-adv-x="2158" 
d="M1834 1010.5q120 -72.5 183.5 -203.5t61.5 -301h-905q12 -170 120.5 -271.5t274.5 -101.5q100 0 186 35t150 100l88 -94q-80 -86 -190.5 -133t-243.5 -47q-162 0 -282 75.5t-179 209.5q-61 -133 -183 -209t-282 -76q-158 0 -283 69.5t-194.5 193.5t-69.5 284
q0 158 69.5 281.5t194.5 192t283 68.5q162 0 282.5 -75.5t182.5 -208.5q61 133 180 208.5t276 75.5q160 0 280 -72.5zM1810.5 859q-98.5 97 -256.5 97q-154 0 -258 -97t-120 -255h743q-10 158 -108.5 255zM832.5 188.5q89.5 51.5 138.5 142.5t49 208t-49 207t-138.5 141
t-199.5 51q-111 0 -200 -51t-138 -141.5t-49 -206.5q0 -117 49 -208t138 -142.5t200 -51.5q110 0 199.5 51.5z" />
    <glyph glyph-name="Racute" unicode="&#x154;" horiz-adv-x="1480" 
d="M858 457q-61 -4 -96 -4h-381v-453h-164v1434h545q268 0 416.5 -126t148.5 -356q0 -176 -83 -294.5t-238 -170.5l335 -487h-186zM1063.5 696q105.5 86 105.5 252q0 162 -105.5 245t-301.5 83h-381v-666h381q196 0 301.5 86zM760 1611h-153l245 279l162 -78z" />
    <glyph glyph-name="racute" unicode="&#x155;" horiz-adv-x="761" 
d="M506 1020.5q98 62.5 235 64.5v-161q-168 2 -270 -93.5t-117 -257.5v-573h-159v1079h159v-239q54 118 152 180.5zM430 1257h-153l245 279l162 -78z" />
    <glyph glyph-name="Rcommaaccent" unicode="&#x156;" horiz-adv-x="1480" 
d="M858 457q-61 -4 -96 -4h-381v-453h-164v1434h545q268 0 416.5 -126t148.5 -356q0 -176 -83 -294.5t-238 -170.5l335 -487h-186zM1063.5 696q105.5 86 105.5 252q0 162 -105.5 245t-301.5 83h-381v-666h381q196 0 301.5 86zM817.5 -140.5q28.5 -27.5 28.5 -74.5
q0 -43 -31 -90l-96 -148h-90l68 150q-45 27 -45 88q0 45 27.5 73.5t68.5 28.5t69.5 -27.5z" />
    <glyph glyph-name="rcommaaccent" unicode="&#x157;" horiz-adv-x="761" 
d="M506 1020.5q98 62.5 235 64.5v-161q-168 2 -270 -93.5t-117 -257.5v-573h-159v1079h159v-239q54 118 152 180.5zM350.5 -140.5q28.5 -27.5 28.5 -74.5q0 -43 -31 -90l-96 -148h-90l68 150q-45 27 -45 88q0 45 27.5 73.5t68.5 28.5t69.5 -27.5z" />
    <glyph glyph-name="Rcaron" unicode="&#x158;" horiz-adv-x="1480" 
d="M858 457q-61 -4 -96 -4h-381v-453h-164v1434h545q268 0 416.5 -126t148.5 -356q0 -176 -83 -294.5t-238 -170.5l335 -487h-186zM1063.5 696q105.5 86 105.5 252q0 162 -105.5 245t-301.5 83h-381v-666h381q196 0 301.5 86zM565 1882l147 -193l148 193h149l-213 -281h-168
l-213 281h150z" />
    <glyph glyph-name="rcaron" unicode="&#x159;" horiz-adv-x="761" 
d="M506 1020.5q98 62.5 235 64.5v-161q-168 2 -270 -93.5t-117 -257.5v-573h-159v1079h159v-239q54 118 152 180.5zM236 1528l147 -193l148 193h149l-213 -281h-168l-213 281h150z" />
    <glyph glyph-name="Sacute" unicode="&#x15a;" horiz-adv-x="1251" 
d="M887 1404q121 -36 211 -97l-70 -154q-92 61 -196.5 91t-198.5 30q-139 0 -222 -50t-83 -141q0 -78 46 -129t115.5 -79.5t190.5 -65.5q147 -47 236.5 -88t153 -121t63.5 -211q0 -119 -64.5 -208t-182.5 -138t-272 -49t-299 59.5t-249 159.5l73 147q98 -96 226.5 -149
t250.5 -53q156 0 246 60.5t90 162.5q0 80 -47 132t-116.5 81t-190.5 65q-145 43 -235.5 83t-153 119t-62.5 208q0 111 61.5 195t174.5 130t260 46q123 0 244 -36zM672 1611h-153l245 279l162 -78z" />
    <glyph glyph-name="sacute" unicode="&#x15b;" horiz-adv-x="927" 
d="M668 1059.5q90 -25.5 157 -72.5l-61 -127q-63 41 -141 64.5t-152 23.5q-96 0 -154.5 -35.5t-58.5 -107.5q0 -49 33 -82t81 -53.5t134 -44.5q113 -33 183.5 -66t120.5 -95.5t50 -162.5q0 -152 -113.5 -229.5t-281.5 -77.5q-117 0 -227.5 40t-186.5 111l62 121
q68 -63 165 -100t193 -37q102 0 166.5 40t64.5 118t-62 115.5t-191 74.5q-113 35 -179.5 65.5t-115 91t-48.5 157.5q0 147 106.5 220.5t268.5 73.5q97 0 187 -25.5zM516 1257h-153l245 279l162 -78z" />
    <glyph glyph-name="Scedilla" unicode="&#x15e;" horiz-adv-x="1251" 
d="M374 954.5q46 -51.5 115.5 -80t190.5 -65.5q147 -47 236.5 -88t153 -121t63.5 -211q0 -160 -113 -263t-305 -126l-45 -102q66 -8 105.5 -49.5t39.5 -106.5q2 -82 -54 -132t-145 -50q-45 0 -90 13t-75 36l34 88q25 -20 57.5 -30.5t63.5 -10.5q49 0 80 28.5t29 67.5
q0 35 -28 60.5t-75 25.5q-39 0 -67 -6l67 162q-154 0 -298 59.5t-248 159.5l73 147q98 -96 226.5 -149t250.5 -53q156 0 246 60.5t90 162.5q0 80 -47 132t-116.5 81t-190.5 65q-145 43 -235.5 83t-153 119t-62.5 208q0 111 61.5 195t174.5 130t260 46q123 0 244 -36t211 -97
l-70 -154q-92 61 -196.5 91t-198.5 30q-139 0 -222 -50t-83 -141q0 -77 46 -128.5z" />
    <glyph glyph-name="scedilla" unicode="&#x15f;" horiz-adv-x="927" 
d="M772 92q-88 -76 -229 -94l-45 -100q66 -8 105.5 -49.5t39.5 -106.5q2 -82 -54.5 -132t-144.5 -50q-45 0 -90 13t-75 36l34 88q25 -20 57.5 -30.5t63.5 -10.5q49 0 80 28.5t29 67.5q0 35 -28 60.5t-75 25.5q-39 0 -67 -6l67 162q-111 4 -214 44t-175 107l62 121
q68 -63 165 -100t193 -37q102 0 166.5 40t64.5 118t-62 115.5t-191 74.5q-113 35 -179.5 65.5t-115 91t-48.5 157.5q0 147 106.5 220.5t268.5 73.5q96 0 186.5 -25.5t157.5 -72.5l-61 -127q-63 41 -141 64.5t-152 23.5q-96 0 -154.5 -35.5t-58.5 -107.5q0 -49 33 -82
t81 -53.5t134 -44.5q113 -33 183.5 -66t120.5 -95.5t50 -162.5q0 -133 -88 -209z" />
    <glyph glyph-name="Scaron" unicode="&#x160;" horiz-adv-x="1251" 
d="M887 1404q121 -36 211 -97l-70 -154q-92 61 -196.5 91t-198.5 30q-139 0 -222 -50t-83 -141q0 -78 46 -129t115.5 -79.5t190.5 -65.5q147 -47 236.5 -88t153 -121t63.5 -211q0 -119 -64.5 -208t-182.5 -138t-272 -49t-299 59.5t-249 159.5l73 147q98 -96 226.5 -149
t250.5 -53q156 0 246 60.5t90 162.5q0 80 -47 132t-116.5 81t-190.5 65q-145 43 -235.5 83t-153 119t-62.5 208q0 111 61.5 195t174.5 130t260 46q123 0 244 -36zM477 1882l147 -193l148 193h149l-213 -281h-168l-213 281h150z" />
    <glyph glyph-name="scaron" unicode="&#x161;" horiz-adv-x="927" 
d="M668 1059.5q90 -25.5 157 -72.5l-61 -127q-63 41 -141 64.5t-152 23.5q-96 0 -154.5 -35.5t-58.5 -107.5q0 -49 33 -82t81 -53.5t134 -44.5q113 -33 183.5 -66t120.5 -95.5t50 -162.5q0 -152 -113.5 -229.5t-281.5 -77.5q-117 0 -227.5 40t-186.5 111l62 121
q68 -63 165 -100t193 -37q102 0 166.5 40t64.5 118t-62 115.5t-191 74.5q-113 35 -179.5 65.5t-115 91t-48.5 157.5q0 147 106.5 220.5t268.5 73.5q97 0 187 -25.5zM320 1528l147 -193l148 193h149l-213 -281h-168l-213 281h150z" />
    <glyph glyph-name="Tcedilla" unicode="&#x162;" horiz-adv-x="1142" 
d="M580 -102q66 -8 105.5 -49.5t39.5 -106.5q2 -82 -54.5 -132t-144.5 -50q-45 0 -90 13t-76 36l35 88q25 -20 57.5 -30.5t63.5 -10.5q49 0 80 28.5t29 67.5q0 35 -28 60.5t-75 25.5q-41 0 -67 -6l69 168h-35v1276h-466v158h1099v-158h-469v-1276h-28z" />
    <glyph glyph-name="tcedilla" unicode="&#x163;" horiz-adv-x="798" 
d="M624 -152q40 -41 40 -106q2 -82 -54.5 -132t-144.5 -50q-45 0 -90 13t-76 36l35 88q25 -20 57.5 -30.5t63.5 -10.5q49 0 79.5 28.5t28.5 67.5q0 35 -27.5 60.5t-74.5 25.5q-39 0 -68 -6l68 162q-104 14 -166 91t-62 214v616h-155v129h155v285h158v-285l342 3v-132h-342
v-587q0 -96 36 -138.5t108 -42.5q84 0 172 56l45 -129q-90 -63 -191 -78l-43 -98q66 -9 106 -50z" />
    <glyph glyph-name="Tcaron" unicode="&#x164;" horiz-adv-x="1142" 
d="M653 1276v-1276h-164v1276h-466v158h1099v-158h-469zM430 1882l147 -193l148 193h149l-213 -281h-168l-213 281h150z" />
    <glyph glyph-name="tcaron" unicode="&#x165;" horiz-adv-x="765" 
d="M596 1360q-45 27 -45 88q0 45 28.5 73.5t69.5 28.5t68.5 -28.5t27.5 -75.5q0 -39 -28 -86l-96 -150h-91zM508 -8q-125 0 -200 76.5t-75 230.5v616h-155v129h155v285h158v-285l342 3v-132h-342v-587q0 -96 36 -138.5t108 -42.5q82 0 172 56l45 -129q-117 -80 -244 -82z
" />
    <glyph glyph-name="Umacron" unicode="&#x16a;" horiz-adv-x="1572" 
d="M1229 150.5q-160 -158.5 -441 -158.5q-283 0 -443.5 158.5t-160.5 439.5v844h164v-844q0 -207 118 -323.5t322 -116.5q205 0 321 115.5t116 324.5v844h164v-844q0 -281 -160 -439.5zM541 1677v127h493v-127h-493z" />
    <glyph glyph-name="umacron" unicode="&#x16b;" horiz-adv-x="1325" 
d="M1130 0h-159v244q-104 -246 -410 -250q-188 0 -295.5 112.5t-107.5 307.5v665h159v-622q0 -143 80 -223t219 -80q166 2 260.5 111.5t94.5 283.5v530h159v-1079zM410 1323v127h493v-127h-493z" />
    <glyph glyph-name="Uring" unicode="&#x16e;" horiz-adv-x="1572" 
d="M1229 150.5q-160 -158.5 -441 -158.5q-283 0 -443.5 158.5t-160.5 439.5v844h164v-844q0 -207 118 -323.5t322 -116.5q205 0 321 115.5t116 324.5v844h164v-844q0 -281 -160 -439.5zM953.5 1907.5q70.5 -68.5 70.5 -162.5t-70.5 -164t-167.5 -70q-96 0 -165.5 68.5
t-69.5 165.5q0 94 69.5 162.5t165.5 68.5q97 0 167.5 -68.5zM676 1848q-47 -44 -47 -103q0 -61 46 -105.5t111 -44.5q66 0 113 44t47 106q0 59 -47 103t-113 44q-63 0 -110 -44z" />
    <glyph glyph-name="uring" unicode="&#x16f;" horiz-adv-x="1325" 
d="M1130 0h-159v244q-104 -246 -410 -250q-188 0 -295.5 112.5t-107.5 307.5v665h159v-622q0 -143 80 -223t219 -80q166 2 260.5 111.5t94.5 283.5v530h159v-1079zM822.5 1553.5q70.5 -68.5 70.5 -162.5t-70.5 -164t-167.5 -70q-96 0 -165.5 68.5t-69.5 165.5
q0 94 69.5 162.5t165.5 68.5q97 0 167.5 -68.5zM545 1494q-47 -44 -47 -103q0 -61 46 -105.5t111 -44.5q66 0 113 44t47 106q0 59 -47 103t-113 44q-63 0 -110 -44z" />
    <glyph glyph-name="Uhungarumlaut" unicode="&#x170;" horiz-adv-x="1572" 
d="M1229 150.5q-160 -158.5 -441 -158.5q-283 0 -443.5 158.5t-160.5 439.5v844h164v-844q0 -207 118 -323.5t322 -116.5q205 0 321 115.5t116 324.5v844h164v-844q0 -281 -160 -439.5zM657 1607h-133l186 289l136 -69zM958 1607h-133l187 289l135 -69z" />
    <glyph glyph-name="uhungarumlaut" unicode="&#x171;" horiz-adv-x="1325" 
d="M1130 0h-159v244q-104 -246 -410 -250q-188 0 -295.5 112.5t-107.5 307.5v665h159v-622q0 -143 80 -223t219 -80q166 2 260.5 111.5t94.5 283.5v530h159v-1079zM528 1253h-133l186 289l136 -69zM829 1253h-133l187 289l135 -69z" />
    <glyph glyph-name="Uogonek" unicode="&#x172;" horiz-adv-x="1574" 
d="M1389 590q0 -227 -105.5 -375.5t-298.5 -198.5q-121 -160 -121 -249q0 -37 20.5 -57.5t51.5 -20.5q53 0 111 67l53 -61q-35 -49 -82 -77t-96 -28q-63 0 -106.5 39t-43.5 113q0 53 26.5 113.5t82.5 140.5q-57 -4 -93 -4q-283 0 -443.5 158.5t-160.5 439.5v844h164v-844
q0 -207 118 -323.5t322 -116.5q205 0 321 115.5t116 324.5v844h164v-844z" />
    <glyph glyph-name="uogonek" unicode="&#x173;" horiz-adv-x="1320" 
d="M1104 0q-117 -139 -117 -233q0 -37 19.5 -57.5t52.5 -20.5q53 0 110 67l54 -61q-35 -49 -82 -77t-99 -28q-59 0 -103 38t-44 112q0 53 28.5 116.5t90.5 147.5h-37v229q-111 -236 -414 -239q-190 0 -296.5 111.5t-106.5 308.5v665h159v-622q0 -141 80 -222t219 -81
q152 0 248.5 94t110.5 252v579h158v-1079h-31z" />
    <glyph glyph-name="Wcircumflex" unicode="&#x174;" horiz-adv-x="2082" 
d="M1438 0l-387 1208l-392 -1208h-167l-480 1434h176l394 -1244l389 1242l164 2l393 -1244l389 1244h170l-481 -1434h-168zM1116 1616l-148 184l-147 -184h-139l209 266h155l209 -266h-139z" />
    <glyph glyph-name="wcircumflex" unicode="&#x175;" horiz-adv-x="1769" 
d="M1210 0l-317 877l-315 -877h-166l-404 1079h168l320 -913l313 913h168l317 -913l316 913h166l-400 -1079h-166zM1032 1262l-148 184l-147 -184h-139l209 266h155l209 -266h-139z" />
    <glyph glyph-name="Ycircumflex" unicode="&#x176;" horiz-adv-x="1280" 
d="M725 0h-162v485l-555 949h170l465 -748l459 748h168l-545 -942v-492zM787 1616l-148 184l-147 -184h-139l209 266h155l209 -266h-139z" />
    <glyph glyph-name="ycircumflex" unicode="&#x177;" horiz-adv-x="1028" 
d="M405.5 -342.5q-81.5 -63.5 -190.5 -63.5q-129 0 -227 80l67 133q72 -51 152 -51q63 0 113.5 39t82.5 113l46 100l-447 1071h168l358 -891l342 891h164l-495 -1233q-52 -125 -133.5 -188.5zM668 1262l-148 184l-147 -184h-139l209 266h155l209 -266h-139z" />
    <glyph glyph-name="Ydieresis" unicode="&#x178;" horiz-adv-x="1280" 
d="M399.5 1679.5q-28.5 30.5 -28.5 75.5t28.5 75t69.5 30t69.5 -30t28.5 -75t-28.5 -75.5t-69.5 -30.5t-69.5 30.5zM739.5 1679.5q-28.5 30.5 -28.5 75.5t28.5 75t69.5 30t69.5 -30t28.5 -75t-28.5 -75.5t-69.5 -30.5t-69.5 30.5zM725 0h-162v485l-555 949h170l465 -748
l459 748h168l-545 -942v-492z" />
    <glyph glyph-name="Zacute" unicode="&#x179;" horiz-adv-x="1351" 
d="M303 156h961l-2 -156h-1174v131l950 1145h-923v158h1138v-131zM731 1611h-153l245 279l162 -78z" />
    <glyph glyph-name="zacute" unicode="&#x17a;" horiz-adv-x="1077" 
d="M299 139l692 -2v-139l-885 2v121l676 817l-657 2v139l850 -2v-121zM583 1257h-153l245 279l162 -78z" />
    <glyph glyph-name="Zdotaccent" unicode="&#x17b;" horiz-adv-x="1351" 
d="M303 156h961l-2 -156h-1174v131l950 1145h-923v158h1138v-131zM761 1821.5q30 -31.5 30 -78.5t-30 -79t-75 -32t-74.5 31.5t-29.5 79.5q0 47 29.5 78.5t74.5 31.5t75 -31.5z" />
    <glyph glyph-name="zdotaccent" unicode="&#x17c;" horiz-adv-x="1077" 
d="M299 139l692 -2v-139l-885 2v121l676 817l-657 2v139l850 -2v-121zM613 1467.5q30 -31.5 30 -78.5t-30 -79t-75 -32t-74.5 31.5t-29.5 79.5q0 47 29.5 78.5t74.5 31.5t75 -31.5z" />
    <glyph glyph-name="Zcaron" unicode="&#x17d;" horiz-adv-x="1351" 
d="M303 156h961l-2 -156h-1174v131l950 1145h-923v158h1138v-131zM537 1882l147 -193l148 193h149l-213 -281h-168l-213 281h150z" />
    <glyph glyph-name="zcaron" unicode="&#x17e;" horiz-adv-x="1077" 
d="M299 139l692 -2v-139l-885 2v121l676 817l-657 2v139l850 -2v-121zM387 1528l147 -193l148 193h149l-213 -281h-168l-213 281h150z" />
    <glyph glyph-name="florin" unicode="&#x192;" horiz-adv-x="712" 
d="M499.5 1339.5q-57.5 -57.5 -69.5 -155.5l-29 -236h310l-15 -121h-309l-111 -897q-20 -158 -101 -247t-216 -89q-55 0 -112.5 22t-98.5 56l51 125q27 -27 69 -43t77 -16q150 0 176 215l106 874h-135l12 121h140l30 258q18 152 113.5 243t235.5 91q61 0 126.5 -21.5
t114.5 -56.5l-63 -123q-35 25 -79 41.5t-81 16.5q-84 0 -141.5 -57.5z" />
    <glyph glyph-name="Scommaaccent" unicode="&#x218;" horiz-adv-x="1251" 
d="M887 1404q121 -36 211 -97l-70 -154q-92 61 -196.5 91t-198.5 30q-139 0 -222 -50t-83 -141q0 -78 46 -129t115.5 -79.5t190.5 -65.5q147 -47 236.5 -88t153 -121t63.5 -211q0 -119 -64.5 -208t-182.5 -138t-272 -49t-299 59.5t-249 159.5l73 147q98 -96 226.5 -149
t250.5 -53q156 0 246 60.5t90 162.5q0 80 -47 132t-116.5 81t-190.5 65q-145 43 -235.5 83t-153 119t-62.5 208q0 111 61.5 195t174.5 130t260 46q123 0 244 -36zM712.5 -140.5q28.5 -27.5 28.5 -74.5q0 -43 -31 -90l-96 -148h-90l68 150q-45 27 -45 88q0 45 27.5 73.5
t68.5 28.5t69.5 -27.5z" />
    <glyph glyph-name="scommaaccent" unicode="&#x219;" horiz-adv-x="927" 
d="M668 1059.5q90 -25.5 157 -72.5l-61 -127q-63 41 -141 64.5t-152 23.5q-96 0 -154.5 -35.5t-58.5 -107.5q0 -49 33 -82t81 -53.5t134 -44.5q113 -33 183.5 -66t120.5 -95.5t50 -162.5q0 -152 -113.5 -229.5t-281.5 -77.5q-117 0 -227.5 40t-186.5 111l62 121
q68 -63 165 -100t193 -37q102 0 166.5 40t64.5 118t-62 115.5t-191 74.5q-113 35 -179.5 65.5t-115 91t-48.5 157.5q0 147 106.5 220.5t268.5 73.5q97 0 187 -25.5zM540.5 -140.5q28.5 -27.5 28.5 -74.5q0 -43 -31 -90l-96 -148h-90l68 150q-45 27 -45 88q0 45 27.5 73.5
t68.5 28.5t69.5 -27.5z" />
    <glyph glyph-name="uni021A" unicode="&#x21a;" horiz-adv-x="1142" 
d="M653 1276v-1276h-164v1276h-466v158h1099v-158h-469zM622.5 -140.5q28.5 -27.5 28.5 -74.5q0 -43 -31 -90l-96 -148h-90l68 150q-45 27 -45 88q0 45 27.5 73.5t68.5 28.5t69.5 -27.5z" />
    <glyph glyph-name="uni021B" unicode="&#x21b;" horiz-adv-x="798" 
d="M508 -8q-125 0 -200 76.5t-75 230.5v616h-155v129h155v285h158v-285l342 3v-132h-342v-587q0 -96 36 -138.5t108 -42.5q84 0 172 56l45 -129q-117 -80 -244 -82zM561.5 -140.5q28.5 -27.5 28.5 -74.5q0 -43 -31 -90l-96 -148h-90l68 150q-45 27 -45 88q0 45 27.5 73.5
t68.5 28.5t69.5 -27.5z" />
    <glyph glyph-name="dotlessj" unicode="&#x237;" horiz-adv-x="518" 
d="M272.5 -312q-75.5 -91 -215.5 -91q-131 0 -245 75l47 125q80 -57 168 -57q80 0 120.5 58.5t40.5 168.5v1112h160v-1132q0 -168 -75.5 -259z" />
    <glyph glyph-name="circumflex" unicode="&#x2c6;" 
d="M506 1266l-148 184l-147 -184h-139l209 266h155l209 -266h-139z" />
    <glyph glyph-name="caron" unicode="&#x2c7;" 
d="M211 1532l147 -193l148 193h149l-213 -281h-168l-213 281h150z" />
    <glyph glyph-name="firsttonechinese" unicode="&#x2c9;" 
d="M113 1323v127h493v-127h-493z" />
    <glyph glyph-name="breve" unicode="&#x2d8;" 
d="M540.5 1327q-73.5 -74 -182.5 -74t-182.5 74t-77.5 191h113q4 -63 45 -105.5t102 -42.5t102.5 42t45.5 106h112q-4 -117 -77.5 -191z" />
    <glyph glyph-name="dotaccent" unicode="&#x2d9;" 
d="M433 1467.5q30 -31.5 30 -78.5t-30 -79t-75 -32t-74.5 31.5t-29.5 79.5q0 47 29.5 78.5t74.5 31.5t75 -31.5z" />
    <glyph glyph-name="ring" unicode="&#x2da;" 
d="M525.5 1553.5q70.5 -68.5 70.5 -162.5t-70.5 -164t-167.5 -70q-96 0 -165.5 68.5t-69.5 165.5q0 94 69.5 162.5t165.5 68.5q97 0 167.5 -68.5zM248 1494q-47 -44 -47 -103q0 -61 46 -105.5t111 -44.5q66 0 113 44t47 106q0 59 -47 103t-113 44q-63 0 -110 -44z" />
    <glyph glyph-name="ogonek" unicode="&#x2db;" 
d="M289 -233q0 -37 20.5 -57.5t50.5 -20.5q53 0 111 67l53 -61q-35 -49 -82 -77t-96 -28q-63 0 -106 39t-43 113q0 111 122 274h91q-121 -161 -121 -249z" />
    <glyph glyph-name="tilde" unicode="&#x2dc;" 
d="M295 1507.5q33 -18.5 74 -51.5q37 -29 58.5 -41t43.5 -12q88 0 88 106h107q0 -113 -43 -172t-127 -59q-43 0 -77 18.5t-75 53.5q-33 27 -53.5 39t-42.5 12q-88 0 -88 -107h-107q0 113 43 172.5t127 59.5q39 0 72 -18.5z" />
    <glyph glyph-name="hungarumlaut" unicode="&#x2dd;" 
d="M180 1257h-133l186 289l136 -69zM481 1257h-133l187 289l135 -69z" />
    <glyph glyph-name="uni0326" unicode="&#x326;" horiz-adv-x="0" 
d="M274.5 -140.5q28.5 -27.5 28.5 -74.5q0 -43 -31 -90l-96 -148h-90l68 150q-45 27 -45 88q0 45 27.5 73.5t68.5 28.5t69.5 -27.5z" />
    <glyph glyph-name="Delta" unicode="&#x394;" horiz-adv-x="1470" 
d="M8 0l643 1434h170l641 -1434h-1454zM731 1247l-489 -1110h981z" />
    <glyph glyph-name="pi" unicode="&#x3c0;" horiz-adv-x="1478" 
d="M1133 948v-948h-138v948h-377l-108 -948h-135l106 948h-131q-100 0 -166.5 -57t-66.5 -141t59 -170l-113 -50q-35 51 -55 118t-20 128q0 84 45 153.5t125 109.5t176 40h1128l-2 -131h-327z" />
    <glyph glyph-name="Wgrave" unicode="&#x1e80;" horiz-adv-x="2082" 
d="M1438 0l-387 1208l-392 -1208h-167l-480 1434h176l394 -1244l389 1242l164 2l393 -1244l389 1244h170l-481 -1434h-168zM917 1611l-256 203l164 76l246 -279h-154z" />
    <glyph glyph-name="wgrave" unicode="&#x1e81;" horiz-adv-x="1769" 
d="M1210 0l-317 877l-315 -877h-166l-404 1079h168l320 -913l313 913h168l317 -913l316 913h166l-400 -1079h-166zM835 1257l-256 203l164 76l246 -279h-154z" />
    <glyph glyph-name="Wacute" unicode="&#x1e82;" horiz-adv-x="2082" 
d="M1438 0l-387 1208l-392 -1208h-167l-480 1434h176l394 -1244l389 1242l164 2l393 -1244l389 1244h170l-481 -1434h-168zM1014 1611h-153l245 279l162 -78z" />
    <glyph glyph-name="wacute" unicode="&#x1e83;" horiz-adv-x="1769" 
d="M1210 0l-317 877l-315 -877h-166l-404 1079h168l320 -913l313 913h168l317 -913l316 913h166l-400 -1079h-166zM930 1257h-153l245 279l162 -78z" />
    <glyph glyph-name="Wdieresis" unicode="&#x1e84;" horiz-adv-x="2082" 
d="M868.5 1830q28.5 -30 28.5 -75t-28.5 -75.5t-69.5 -30.5t-70 30.5t-29 75.5t29 75t70 30t69.5 -30zM1208.5 1830q28.5 -30 28.5 -75t-28.5 -75.5t-69.5 -30.5t-70 30.5t-29 75.5t29 75t70 30t69.5 -30zM1438 0l-387 1208l-392 -1208h-167l-480 1434h176l394 -1244
l389 1242l164 2l393 -1244l389 1244h170l-481 -1434h-168z" />
    <glyph glyph-name="wdieresis" unicode="&#x1e85;" horiz-adv-x="1769" 
d="M784.5 1475.5q28.5 -29.5 28.5 -74.5t-28.5 -76t-69.5 -31t-70 31t-29 76t29 74.5t70 29.5t69.5 -29.5zM1124.5 1475.5q28.5 -29.5 28.5 -74.5t-28.5 -76t-69.5 -31t-70 31t-29 76t29 74.5t70 29.5t69.5 -29.5zM1210 0l-317 877l-315 -877h-166l-404 1079h168l320 -913
l313 913h168l317 -913l316 913h166l-400 -1079h-166z" />
    <glyph glyph-name="Ygrave" unicode="&#x1ef2;" horiz-adv-x="1280" 
d="M725 0h-162v485l-555 949h170l465 -748l459 748h168l-545 -942v-492zM589 1611l-256 203l164 76l246 -279h-154z" />
    <glyph glyph-name="ygrave" unicode="&#x1ef3;" horiz-adv-x="1028" 
d="M405.5 -342.5q-81.5 -63.5 -190.5 -63.5q-129 0 -227 80l67 133q72 -51 152 -51q63 0 113.5 39t82.5 113l46 100l-447 1071h168l358 -891l342 891h164l-495 -1233q-52 -125 -133.5 -188.5zM469 1257l-256 203l164 76l246 -279h-154z" />
    <glyph glyph-name="endash" unicode="&#x2013;" horiz-adv-x="825" 
d="M0 471v121h825v-121h-825z" />
    <glyph glyph-name="emdash" unicode="&#x2014;" horiz-adv-x="1470" 
d="M0 471v121h1470v-121h-1470z" />
    <glyph glyph-name="quoteleft" unicode="&#x2018;" horiz-adv-x="403" 
d="M283 1210q0 -45 -29 -73.5t-70 -28.5t-69.5 28.5t-28.5 75.5q0 41 31 86l96 150h90l-67 -150q47 -29 47 -88z" />
    <glyph glyph-name="quoteright" unicode="&#x2019;" horiz-adv-x="403" 
d="M274.5 1405q28.5 -29 28.5 -76q0 -41 -31 -88l-96 -147h-90l68 149q-45 27 -45 86q0 45 27.5 75t68.5 30t69.5 -29z" />
    <glyph glyph-name="quotesinglbase" unicode="&#x201a;" horiz-adv-x="403" 
d="M274.5 164q28.5 -29 28.5 -76q0 -41 -31 -88l-96 -147h-90l68 149q-45 27 -45 88q0 45 27.5 74t68.5 29t69.5 -29z" />
    <glyph glyph-name="quotedblleft" unicode="&#x201c;" horiz-adv-x="577" 
d="M283 1210q0 -45 -29 -73.5t-70 -28.5t-69.5 28.5t-28.5 75.5q0 41 31 86l96 150h90l-67 -150q47 -29 47 -88zM541 1210q0 -45 -29 -73.5t-70 -28.5t-69.5 28.5t-28.5 75.5q0 41 31 86l96 150h90l-67 -150q47 -29 47 -88z" />
    <glyph glyph-name="quotedblright" unicode="&#x201d;" horiz-adv-x="624" 
d="M274.5 1405q28.5 -29 28.5 -76q0 -41 -31 -88l-96 -147h-90l68 149q-45 27 -45 86q0 45 27.5 75t68.5 30t69.5 -29zM532.5 1405q28.5 -29 28.5 -76q0 -41 -31 -88l-96 -147h-90l68 149q-45 27 -45 86q0 45 27.5 75t68.5 30t69.5 -29z" />
    <glyph glyph-name="quotedblbase" unicode="&#x201e;" horiz-adv-x="661" 
d="M274.5 164q28.5 -29 28.5 -76q0 -41 -31 -88l-96 -147h-90l68 149q-45 27 -45 88q0 45 27.5 74t68.5 29t69.5 -29zM532.5 164q28.5 -29 28.5 -76q0 -41 -31 -88l-96 -147h-90l68 149q-45 27 -45 88q0 45 27.5 74t68.5 29t69.5 -29z" />
    <glyph glyph-name="dagger" unicode="&#x2020;" horiz-adv-x="1052" 
d="M1026 979v-158h-426v-1212h-151v1212h-422v158h422v453h151v-453h426z" />
    <glyph glyph-name="daggerdbl" unicode="&#x2021;" horiz-adv-x="1052" 
d="M600 272h426v-155h-426v-508h-151v508h-422v155h422v549h-422v158h422v453h151v-453h426v-158h-426v-549z" />
    <glyph glyph-name="bullet" unicode="&#x2022;" horiz-adv-x="507" 
d="M360 661.5q43 -45.5 43 -112.5q0 -70 -43 -116t-106 -46t-106.5 46t-43.5 116q0 68 43 113t107 45q63 0 106 -45.5z" />
    <glyph glyph-name="ellipsis" unicode="&#x2026;" horiz-adv-x="1150" 
d="M268.776 161.329q27.6982 -30.1279 27.6982 -73.8613q0 -43.7344 -27.6982 -73.376t-67.5449 -29.6416q-41.79 0 -69.9736 29.6416t-28.1836 73.376q0 43.7334 28.1836 73.8613t69.9736 30.1279q39.8467 0 67.5449 -30.1279zM632.776 161.329
q27.6982 -30.1279 27.6982 -73.8613q0 -43.7344 -27.6982 -73.376t-67.5449 -29.6416q-41.79 0 -69.9736 29.6416t-28.1836 73.376q0 43.7334 28.1836 73.8613t69.9736 30.1279q39.8467 0 67.5449 -30.1279zM998.776 161.329q27.6982 -30.1279 27.6982 -73.8613
q0 -43.7344 -27.6982 -73.376t-67.5449 -29.6416q-41.79 0 -69.9736 29.6416t-28.1836 73.376q0 43.7334 28.1836 73.8613t69.9736 30.1279q39.8467 0 67.5449 -30.1279z" />
    <glyph glyph-name="perthousand" unicode="&#x2030;" horiz-adv-x="2834" 
d="M722 1323q97 -113 97 -311q0 -201 -97 -312.5t-269 -111.5t-268.5 111.5t-96.5 312.5t96.5 312.5t268.5 111.5t269 -113zM266.5 1249q-65.5 -84 -65.5 -237q0 -154 65.5 -237t186.5 -83t186.5 83t65.5 237t-66 237.5t-186 83.5q-121 0 -186.5 -84zM1409 1434h158
l-1072 -1434h-159zM1744 732.5q97 -111.5 97 -310.5q0 -201 -97 -312.5t-269 -111.5t-268.5 111.5t-96.5 312.5q0 199 96.5 310.5t268.5 111.5t269 -111.5zM1288.5 658q-65.5 -83 -65.5 -236q0 -156 65.5 -239t186.5 -83t186.5 83t65.5 239q0 154 -66 236.5t-186 82.5
q-121 0 -186.5 -83zM2651 732.5q97 -111.5 97 -310.5q0 -201 -97 -312.5t-269 -111.5t-268.5 111.5t-96.5 312.5q0 199 96.5 310.5t268.5 111.5t269 -111.5zM2195.5 658q-65.5 -83 -65.5 -236q0 -156 65.5 -239t186.5 -83t186.5 83t65.5 239q0 154 -66 236.5t-186 82.5
q-121 0 -186.5 -83z" />
    <glyph glyph-name="guilsinglleft" unicode="&#x2039;" horiz-adv-x="559" 
d="M446 182h-139l-231 340l231 344h139l-219 -344z" />
    <glyph glyph-name="guilsinglright" unicode="&#x203a;" horiz-adv-x="573" 
d="M156 868h139l231 -342l-231 -344h-139l221 344z" />
    <glyph glyph-name="fraction" unicode="&#x2044;" horiz-adv-x="116" 
d="M504 1434h158l-1072 -1434h-159z" />
    <glyph glyph-name="Euro" unicode="&#x20ac;" horiz-adv-x="1630" 
d="M1305.5 51.5q-140.5 -59.5 -285.5 -59.5q-162 0 -303.5 61.5t-244.5 172t-153 251.5h-231v105h203q-12 68 -12 137q0 68 12 131h-203v104h229q49 141 153.5 251t248 171.5t307.5 61.5q145 0 283.5 -55.5t238.5 -153.5l-94 -125q-86 86 -196.5 133t-229.5 47
q-176 0 -319.5 -90t-212.5 -240h555v-104h-590q-16 -66 -17 -131q0 -68 17 -137h590v-105h-551q72 -147 214 -235t314 -88q115 0 226.5 45t199.5 127l96 -113q-104 -102 -244.5 -161.5z" />
    <glyph glyph-name="uni2113" unicode="&#x2113;" horiz-adv-x="952" 
d="M814 1379.5q58 -62.5 58 -179.5q0 -180 -138 -373.5t-374 -380.5q-14 -74 -14 -139q0 -90 37 -135t117 -45q84 0 157.5 48t149.5 136l61 -73q-176 -244 -401 -244q-131 0 -188.5 79t-57.5 226q0 37 2 55l-114 -82l-33 86l166 123l96 582q35 186 123 282.5t203 96.5
q92 0 150 -62.5zM541.5 1268.5q-52.5 -64.5 -74.5 -195.5l-84 -475q178 145 281.5 307t103.5 293q0 66 -29.5 100.5t-79.5 34.5q-65 0 -117.5 -64.5z" />
    <glyph glyph-name="trademark" unicode="&#x2122;" horiz-adv-x="1792" 
d="M381 1321v-748h-123v748h-264v113h653v-113h-266zM1559 573v682l-293 -591h-78l-293 591v-682h-113v861h148l297 -600l295 600h149v-861h-112z" />
    <glyph glyph-name="Omega" unicode="&#x2126;" horiz-adv-x="1841" 
d="M1298 1350q168 -90 263.5 -248t95.5 -352q0 -168 -87 -337t-224 -266h475v-147h-660v139q152 82 250 251t98 345q0 158 -75.5 284t-209.5 197.5t-302 71.5t-302.5 -71.5t-210 -197.5t-75.5 -284q0 -176 98 -345t250 -253v-137h-659v147h473q-137 96 -223.5 264.5
t-86.5 338.5q0 195 95.5 352.5t263.5 247.5t377 90q208 0 376 -90z" />
    <glyph glyph-name="estimated" unicode="&#x212e;" horiz-adv-x="1656" 
d="M393 631v-336q0 -18 17 -39q80 -86 189.5 -134t231.5 -48q129 0 245 54t196 148h100q-94 -111 -237.5 -175t-305.5 -64q-186 0 -343.5 83t-250 224t-92.5 309t92.5 310.5t250 225.5t343.5 83t344 -83t250.5 -225.5t92.5 -310.5v-14h-1113q-10 0 -10 -8zM1247 1061
q-82 82 -189.5 128t-226.5 46q-121 0 -229 -48t-190 -132q-18 -18 -19 -41v-332q0 -10 10 -10h852q10 0 11 10v338q-1 23 -19 41z" />
    <glyph glyph-name="oneeighth" unicode="&#x215b;" horiz-adv-x="1628" 
d="M217 1327h-174v107h295v-842h-121v735zM1153 1434h158l-1072 -1434h-159zM1424.5 788.5q76.5 -57.5 76.5 -157.5q0 -61 -35.5 -108.5t-99.5 -71.5q84 -27 131 -83.5t47 -131.5q0 -113 -88 -176.5t-239 -63.5q-152 0 -240 63.5t-88 173.5q0 78 49 134.5t135 83.5
q-70 27 -106.5 73.5t-36.5 110.5q0 98 77 154.5t210 56.5q131 0 207.5 -57.5zM1082.5 723q-48.5 -35 -48.5 -98t48.5 -98t134.5 -35t134 34.5t48 98.5q0 63 -48 98t-134 35t-134.5 -35zM1060 356q-56 -39 -56 -108q0 -76 55 -116t158 -40q100 0 156.5 40t56.5 114
q0 72 -56.5 110.5t-156.5 38.5q-101 0 -157 -39z" />
    <glyph glyph-name="threeeighths" unicode="&#x215c;" horiz-adv-x="1761" 
d="M557 1008.5q70 -60.5 70 -158.5q0 -119 -84 -190.5t-228 -71.5q-78 0 -153.5 23.5t-128.5 62.5l51 98q45 -41 104.5 -63.5t118.5 -22.5q94 0 147.5 44t53.5 118q0 72 -53.5 109.5t-149.5 37.5h-112v74l253 264h-376v97h516v-76l-260 -275l47 -2q114 -8 184 -68.5z
M1284 1434h158l-1072 -1434h-159zM1557.5 788.5q76.5 -57.5 76.5 -157.5q0 -61 -35.5 -108.5t-99.5 -71.5q84 -27 131 -83.5t47 -131.5q0 -113 -88 -176.5t-239 -63.5q-152 0 -240 63.5t-88 173.5q0 78 49 134.5t135 83.5q-70 27 -106.5 73.5t-36.5 110.5q0 98 77 154.5
t210 56.5q131 0 207.5 -57.5zM1215.5 723q-48.5 -35 -48.5 -98t48.5 -98t134.5 -35t134 34.5t48 98.5q0 63 -48 98t-134 35t-134.5 -35zM1193 356q-56 -39 -56 -108q0 -76 55 -116t158 -40q100 0 156.5 40t56.5 114q0 72 -56.5 110.5t-156.5 38.5q-101 0 -157 -39z" />
    <glyph glyph-name="fiveeighths" unicode="&#x215d;" horiz-adv-x="1800" 
d="M238 1087q68 20 135 21q139 0 221 -65.5t82 -174.5q0 -127 -85 -203.5t-229 -76.5q-74 0 -155.5 25.5t-145.5 68.5l52 98q49 -43 113.5 -68.5t123.5 -25.5q92 0 145.5 46t53.5 128q0 70 -53.5 110t-145.5 40q-45 0 -113.5 -7.5t-111.5 -17.5v449h518v-103h-405v-244z
M1323 1434h158l-1072 -1434h-159zM1596.5 788.5q76.5 -57.5 76.5 -157.5q0 -61 -35.5 -108.5t-99.5 -71.5q84 -27 131 -83.5t47 -131.5q0 -113 -88 -176.5t-239 -63.5q-152 0 -240 63.5t-88 173.5q0 78 49 134.5t135 83.5q-70 27 -106.5 73.5t-36.5 110.5q0 98 77 154.5
t210 56.5q131 0 207.5 -57.5zM1254.5 723q-48.5 -35 -48.5 -98t48.5 -98t134.5 -35t134 34.5t48 98.5q0 63 -48 98t-134 35t-134.5 -35zM1232 356q-56 -39 -56 -108q0 -76 55 -116t158 -40q100 0 156.5 40t56.5 114q0 72 -56.5 110.5t-156.5 38.5q-101 0 -157 -39z" />
    <glyph glyph-name="seveneighths" unicode="&#x215e;" horiz-adv-x="1728" 
d="M207 592l352 739h-379v-127h-108v230h618v-97l-354 -745h-129zM1252 1434h158l-1072 -1434h-159zM1524.5 788.5q76.5 -57.5 76.5 -157.5q0 -61 -35.5 -108.5t-99.5 -71.5q84 -27 131 -83.5t47 -131.5q0 -113 -88 -176.5t-239 -63.5q-152 0 -240 63.5t-88 173.5
q0 78 49 134.5t135 83.5q-70 27 -106.5 73.5t-36.5 110.5q0 98 77 154.5t210 56.5q131 0 207.5 -57.5zM1182.5 723q-48.5 -35 -48.5 -98t48.5 -98t134.5 -35t134 34.5t48 98.5q0 63 -48 98t-134 35t-134.5 -35zM1160 356q-56 -39 -56 -108q0 -76 55 -116t158 -40
q100 0 156.5 40t56.5 114q0 72 -56.5 110.5t-156.5 38.5q-101 0 -157 -39z" />
    <glyph glyph-name="partialdiff" unicode="&#x2202;" horiz-adv-x="1236" 
d="M855 1347.5q132 -92.5 202.5 -262.5t70.5 -393q0 -334 -148.5 -517t-410.5 -183q-221 0 -352 128t-131 345q0 207 123 330t332 123q166 0 277.5 -79t148.5 -218q4 74 4 104q0 268 -115 418.5t-321 150.5q-86 0 -174.5 -28.5t-161.5 -79.5l-66 131q90 57 200.5 90
t211.5 33q178 0 310 -92.5zM328 695q-88 -83 -88 -226q0 -152 93 -239t249 -87q115 0 193.5 47.5t116.5 120t38 146.5q0 86 -44 159.5t-126 117.5t-193 44q-151 0 -239 -83z" />
    <glyph glyph-name="product" unicode="&#x220f;" horiz-adv-x="1546" 
d="M1169 -397v1773h-792v-1773h-160v1917h1112v-1917h-160z" />
    <glyph glyph-name="summation" unicode="&#x2211;" horiz-adv-x="1245" 
d="M272 1366l623 -733l-627 -760h973v-156h-1169v138l643 776l-631 749v142h1137v-156h-949z" />
    <glyph glyph-name="minus" unicode="&#x2212;" horiz-adv-x="1005" 
d="M76 602v119h854v-119h-854z" />
    <glyph glyph-name="divisionslash" unicode="&#x2215;" horiz-adv-x="649" 
d="M-23 -250l639 1929h142l-641 -1929h-140z" />
    <glyph glyph-name="bulletoperator" unicode="&#x2219;" horiz-adv-x="507" 
d="M360 661.5q43 -45.5 43 -112.5q0 -70 -43 -116t-106 -46t-106.5 46t-43.5 116q0 68 43 113t107 45q63 0 106 -45.5z" />
    <glyph glyph-name="radical" unicode="&#x221a;" horiz-adv-x="1386" 
d="M696 -125l510 1665h156l-582 -1849h-170l-327 971h-250v141h360z" />
    <glyph glyph-name="infinity" unicode="&#x221e;" horiz-adv-x="1820" 
d="M1547 964.5q87 -51.5 137.5 -141.5t50.5 -200q0 -113 -50.5 -203t-137.5 -141.5t-193 -51.5q-113 0 -194 39t-136 100.5t-113 151.5q-57 -92 -112.5 -153.5t-137 -100.5t-194.5 -39q-106 0 -193.5 52.5t-137.5 142.5t-50 201t50 200.5t137 142t194 52.5q113 0 193.5 -39
t136 -100.5t112.5 -153.5q86 139 183.5 216t261.5 77q106 0 193 -51.5zM685 422q83 70 163 201q-78 129 -162 197.5t-219 68.5q-115 0 -190.5 -77t-75.5 -191q0 -117 75.5 -193t190.5 -76q135 0 218 70zM1544 430q76 76 76 193q0 115 -76 190.5t-190 75.5q-135 0 -218 -68.5
t-163 -199.5q78 -129 162 -198t219 -69q114 0 190 76z" />
    <glyph glyph-name="integral" unicode="&#x222b;" horiz-adv-x="638" 
d="M516 1581q-82 0 -116.5 -60.5t-34.5 -203.5q0 -133 20 -559q20 -442 21 -598q0 -221 -59.5 -315.5t-201.5 -94.5q-41 0 -74.5 9.5t-72.5 29.5l27 119q51 -29 104 -29q82 0 118 62.5t36 208.5q0 195 -23 591q-20 426 -20 564q0 219 60 313t200 94q61 0 137 -35l-25 -118
q-45 22 -96 22z" />
    <glyph glyph-name="approxequal" unicode="&#x2248;" horiz-adv-x="1005" 
d="M413 1004.5q42 -17.5 101 -52.5q51 -29 82 -42t59 -13q43 0 65.5 28.5t22.5 82.5h115q0 -121 -45 -183.5t-131 -62.5q-49 0 -93 18.5t-102 53.5q-45 27 -75.5 41t-59.5 14q-43 0 -65.5 -29t-22.5 -82h-114q0 119 45 181.5t131 62.5q45 0 87 -17.5zM413 568.5
q42 -17.5 101 -52.5q47 -29 80 -43t61 -14q43 0 65.5 28.5t22.5 81.5h115q0 -119 -45 -181t-131 -62q-49 0 -93 18t-102 53q-49 29 -77.5 41.5t-57.5 12.5q-43 0 -65.5 -28t-22.5 -81h-114q0 119 45 181.5t131 62.5q45 0 87 -17.5z" />
    <glyph glyph-name="notequal" unicode="&#x2260;" horiz-adv-x="1005" 
d="M506 510h424v-121h-463l-98 -313h-125l98 313h-266v121h305l96 303h-401v121h440l94 301h125l-94 -301h289v-121h-328z" />
    <glyph glyph-name="lessequal" unicode="&#x2264;" horiz-adv-x="1005" 
d="M186 789.582l744 -319.432v-131.125l-854 375.628v150.843l854 375.628v-133.097zM76 67v119h854v-119h-854z" />
    <glyph glyph-name="greaterequal" unicode="&#x2265;" horiz-adv-x="1005" 
d="M819 797.469l-743 318.446v132.11l854 -375.628v-151.829l-854 -375.628v133.097zM76 67v119h854v-119h-854z" />
    <glyph glyph-name="lozenge" unicode="&#x25ca;" horiz-adv-x="1069" 
d="M532 -6l-446 682l449 678l448 -678zM532 246l299 430l-296 430l-297 -430z" />
    <glyph glyph-name="zero.dnom" horiz-adv-x="905" 
d="M722 732.5q97 -111.5 97 -310.5q0 -201 -97 -312.5t-269 -111.5t-268.5 111.5t-96.5 312.5q0 199 96.5 310.5t268.5 111.5t269 -111.5zM266.5 658q-65.5 -83 -65.5 -236q0 -156 65.5 -239t186.5 -83t186.5 83t65.5 239q0 154 -66 236.5t-186 82.5q-121 0 -186.5 -83z" />
    <glyph glyph-name="one.dnom" horiz-adv-x="520" 
d="M217 737h-174v105h295v-842h-121v737z" />
    <glyph glyph-name="two.dnom" horiz-adv-x="778" 
d="M572.5 788.5q74.5 -57.5 74.5 -151.5q0 -121 -158 -275l-256 -260h459v-102h-610v90l326 338q51 51 81.5 103.5t30.5 89.5q0 55 -43 86.5t-119 31.5q-57 0 -120.5 -28.5t-116.5 -75.5l-51 92q70 57 148.5 88t158.5 31q121 0 195.5 -57.5z" />
    <glyph glyph-name="three.dnom" horiz-adv-x="712" 
d="M557 417.5q70 -59.5 70 -157.5q0 -119 -84 -191.5t-228 -72.5q-76 0 -151.5 23.5t-130.5 62.5l51 100q45 -43 103.5 -65.5t119.5 -22.5q94 0 147.5 44t53.5 118q0 72 -53.5 109.5t-149.5 37.5h-112v74l253 264h-376v99h516v-78l-260 -275l47 -2q114 -8 184 -67.5z" />
    <glyph glyph-name="four.dnom" horiz-adv-x="780" 
d="M479 535h115v-226h129v-96h-129v-213h-115v213h-418v94l306 535h118l-301 -533h295v226z" />
    <glyph glyph-name="five.dnom" horiz-adv-x="757" 
d="M238 498q74 18 135 18q139 0 221 -65.5t82 -174.5q0 -127 -85 -203.5t-229 -76.5q-74 0 -155.5 25.5t-145.5 68.5l52 100q49 -45 113.5 -70.5t123.5 -25.5q92 0 145.5 46t53.5 128q0 70 -53.5 111t-145.5 41q-43 0 -112.5 -7t-112.5 -20v449h518v-103h-405v-241z" />
    <glyph glyph-name="six.dnom" horiz-adv-x="808" 
d="M583.5 829.5q67.5 -16.5 123.5 -45.5l-48 -94q-88 53 -198 53q-121 0 -188.5 -81.5t-67.5 -227.5q0 -35 2 -53q23 74 89 117t163 43q127 0 201.5 -73t74.5 -194q0 -129 -82 -203.5t-219 -74.5q-162 0 -254 106.5t-92 300.5q0 201 99.5 322t267.5 121q61 0 128.5 -16.5z
M284.5 394q-55.5 -50 -55.5 -126q0 -63 52.5 -115.5t146.5 -52.5q88 0 141.5 47.5t53.5 128.5q0 78 -51.5 123t-137.5 45q-94 0 -149.5 -50z" />
    <glyph glyph-name="seven.dnom" horiz-adv-x="747" 
d="M207 0l352 739h-379v-127h-108v230h618v-97l-354 -745h-129z" />
    <glyph glyph-name="eight.dnom" horiz-adv-x="823" 
d="M619.5 788.5q76.5 -57.5 76.5 -157.5q0 -61 -35.5 -108.5t-99.5 -71.5q84 -27 131 -83.5t47 -131.5q0 -113 -88 -176.5t-239 -63.5q-152 0 -240 63.5t-88 173.5q0 78 49 134.5t135 83.5q-70 27 -106.5 73.5t-36.5 110.5q0 98 77 154.5t210 56.5q131 0 207.5 -57.5z
M277.5 723q-48.5 -35 -48.5 -98t48.5 -98t134.5 -35t134 34.5t48 98.5q0 63 -48 98t-134 35t-134.5 -35zM255 356q-56 -39 -56 -108q0 -76 55 -116t158 -40q100 0 156.5 40t56.5 114q0 72 -56.5 110.5t-156.5 38.5q-101 0 -157 -39z" />
    <glyph glyph-name="nine.dnom" horiz-adv-x="815" 
d="M230.5 12.5q-66.5 16.5 -121.5 44.5l49 93q84 -53 196 -54q123 0 189.5 81t66.5 226q0 37 -2 56q-23 -74 -89 -117t-163 -43q-127 0 -201.5 72.5t-74.5 195.5q0 129 82 204t219 75q164 0 255 -107.5t91 -302.5q0 -201 -98.5 -320.5t-266.5 -119.5q-65 0 -131.5 16.5z
M530.5 447.5q55.5 50.5 55.5 121.5q0 66 -50.5 118t-146.5 52q-88 0 -141 -47t-53 -127q0 -78 50 -123t136 -45q94 0 149.5 50.5z" />
    <glyph glyph-name="zero.numr" horiz-adv-x="905" 
d="M722 1323q97 -113 97 -311q0 -201 -97 -312.5t-269 -111.5t-268.5 111.5t-96.5 312.5t96.5 312.5t268.5 111.5t269 -113zM266.5 1249q-65.5 -84 -65.5 -237q0 -154 65.5 -237t186.5 -83t186.5 83t65.5 237t-66 237.5t-186 83.5q-121 0 -186.5 -84z" />
    <glyph glyph-name="one.numr" horiz-adv-x="520" 
d="M217 1327h-174v107h295v-842h-121v735z" />
    <glyph glyph-name="two.numr" horiz-adv-x="778" 
d="M573.5 1380.5q73.5 -57.5 73.5 -153.5q0 -119 -158 -273l-256 -260h459v-102h-610v90l326 338q51 51 81.5 102.5t30.5 89.5q0 55 -43 87t-119 32q-57 0 -120.5 -28.5t-116.5 -77.5l-51 92q68 57 147.5 89t159.5 32q123 0 196.5 -57.5z" />
    <glyph glyph-name="three.numr" horiz-adv-x="712" 
d="M557 1008.5q70 -60.5 70 -158.5q0 -119 -84 -190.5t-228 -71.5q-78 0 -153.5 23.5t-128.5 62.5l51 98q45 -41 104.5 -63.5t118.5 -22.5q94 0 147.5 44t53.5 118q0 72 -53.5 109.5t-149.5 37.5h-112v74l253 264h-376v97h516v-76l-260 -275l47 -2q114 -8 184 -68.5z" />
    <glyph glyph-name="four.numr" horiz-adv-x="780" 
d="M479 1124h115v-223h129v-96h-129v-213h-115v213h-418v94l306 535h118l-301 -533h295v223z" />
    <glyph glyph-name="five.numr" horiz-adv-x="757" 
d="M238 1087q68 20 135 21q139 0 221 -65.5t82 -174.5q0 -127 -85 -203.5t-229 -76.5q-74 0 -155.5 25.5t-145.5 68.5l52 98q49 -43 113.5 -68.5t123.5 -25.5q92 0 145.5 46t53.5 128q0 70 -53.5 110t-145.5 40q-45 0 -113.5 -7.5t-111.5 -17.5v449h518v-103h-405v-244z" />
    <glyph glyph-name="six.numr" horiz-adv-x="808" 
d="M583.5 1421.5q67.5 -16.5 123.5 -45.5l-48 -94q-88 53 -198 53q-121 0 -188.5 -82t-67.5 -227q0 -35 2 -53q23 74 89 117t163 43q127 0 201.5 -73t74.5 -196q0 -127 -82 -201.5t-219 -74.5q-162 0 -254 106.5t-92 300.5q0 201 99.5 322t267.5 121q61 0 128.5 -16.5z
M284.5 984q-55.5 -50 -55.5 -124q0 -66 52.5 -118t146.5 -52q88 0 141.5 48t53.5 130q0 78 -51.5 122t-137.5 44q-94 0 -149.5 -50z" />
    <glyph glyph-name="seven.numr" horiz-adv-x="747" 
d="M207 592l352 739h-379v-127h-108v230h618v-97l-354 -745h-129z" />
    <glyph glyph-name="eight.numr" horiz-adv-x="823" 
d="M619.5 1380.5q76.5 -57.5 76.5 -157.5q0 -61 -35.5 -108.5t-99.5 -74.5q84 -25 131 -81t47 -132q0 -113 -87 -176t-240 -63q-154 0 -241 62.5t-87 174.5q0 78 49 134.5t135 80.5q-70 29 -106.5 76t-36.5 111q0 98 77 154.5t210 56.5q131 0 207.5 -57.5zM277.5 1315
q-48.5 -35 -48.5 -98t48.5 -98.5t134.5 -35.5t134 35t48 99q0 63 -48 98t-134 35t-134.5 -35zM255 948q-56 -39 -56 -108q0 -76 55 -116t158 -40q100 0 156.5 40t56.5 114q0 72 -56.5 110.5t-156.5 38.5q-101 0 -157 -39z" />
    <glyph glyph-name="nine.numr" horiz-adv-x="815" 
d="M230.5 604.5q-66.5 16.5 -121.5 44.5l49 92q84 -53 196 -53q123 0 189.5 81t66.5 226q0 37 -2 56q-23 -74 -89 -117t-163 -43q-127 0 -201.5 72.5t-74.5 193.5q0 129 82 205t219 76q164 0 255 -108.5t91 -301.5q0 -201 -98.5 -320.5t-266.5 -119.5q-65 0 -131.5 16.5z
M530.5 1037q55.5 50 55.5 124q0 66 -50.5 118t-146.5 52q-88 0 -141 -47t-53 -129q0 -78 50 -123t136 -45q94 0 149.5 50z" />
    </font>
</defs>
</svg>
